<?xml version="1.0" standalone="no"?>
<!DOCTYPE svg PUBLIC "-//W3C//DTD SVG 1.1//EN" "http://www.w3.org/Graphics/SVG/1.1/DTD/svg11.dtd" >
<svg xmlns="http://www.w3.org/2000/svg">
<metadata></metadata>
<defs>
<font id="novecento_sans_widelight" horiz-adv-x="668" >
<font-face units-per-em="1000" ascent="821" descent="-179" />
<missing-glyph horiz-adv-x="250" />
<glyph horiz-adv-x="0" />
<glyph horiz-adv-x="333" />
<glyph unicode=" "  horiz-adv-x="250" />
<glyph unicode="&#x09;" horiz-adv-x="250" />
<glyph unicode="&#xa0;" horiz-adv-x="250" />
<glyph unicode="!" horiz-adv-x="219" d="M129 700v-558h-39v558h39zM110 -10q-18 0 -28.5 10.5t-10.5 26.5q0 15 10.5 25.5t28.5 10.5t28 -10.5t10 -25.5q0 -16 -10 -26.5t-28 -10.5z" />
<glyph unicode="&#x22;" horiz-adv-x="241" d="M86 700l-3 -220h-32l-3 220h38zM190 700l-2 -220h-33l-2 220h37z" />
<glyph unicode="#" horiz-adv-x="659" d="M429 159h109l-8 -33h-111l-33 -126h-34l33 126h-197l-34 -126h-34l34 126h-110l8 33h111l66 244h-109l9 33h108l34 124h34l-33 -124h197l34 124h34l-34 -124h112l-9 -33h-112zM263 403l-65 -244h197l65 244h-197z" />
<glyph unicode="$" horiz-adv-x="459" d="M420 143q0 -69 -45 -110t-124 -45v-78h-33v79q-158 9 -179 149l35 10q7 -61 51 -93.5t113 -32.5q66 0 105 31.5t39 88.5q0 80 -85 112q-24 9 -93 24q-25 6 -40.5 10t-39 15.5t-37.5 26t-24.5 39t-10.5 56.5q0 62 41.5 101.5t116.5 43.5v80h33v-79q145 -8 173 -134 l-35 -10q-13 54 -48 82t-103 28t-105 -30t-37 -81q0 -57 38 -81t112 -39q38 -8 61 -15t55.5 -24.5t49 -48.5t16.5 -75z" />
<glyph unicode="%" horiz-adv-x="693" d="M157 215q-121 0 -121 177q0 178 121 178q120 0 120 -178q0 -177 -120 -177zM457 560l-189 -560h-34l189 560h34zM157 246q90 0 90 146q0 147 -90 147q-91 0 -91 -147q0 -146 91 -146zM536 -7q-121 0 -121 178t121 178t121 -178t-121 -178zM536 24q91 0 91 147t-91 147 q-90 0 -90 -147t90 -147z" />
<glyph unicode="&#x26;" horiz-adv-x="606" d="M484 274v-90q0 -97 -55 -146.5t-160 -49.5q-100 0 -154 44t-54 117q0 61 36 98.5t89 44.5v2q-46 9 -81.5 43t-35.5 93q0 67 48 104t138 37q194 0 227 -151l-35 -10q-31 127 -190 127q-149 0 -149 -107q0 -52 39.5 -85.5t111.5 -33.5h317v-36zM446 275h-187 q-71 0 -115.5 -32t-44.5 -94q0 -59 43.5 -93t127.5 -34q176 0 176 162v91z" />
<glyph unicode="'" horiz-adv-x="137" d="M86 700l-3 -220h-32l-3 220h38z" />
<glyph unicode="(" horiz-adv-x="328" d="M299 796l16 -35q-108 -39 -163 -151.5t-55 -316.5q0 -203 55 -316t163 -152l-16 -34q-121 44 -180.5 167t-59.5 335q0 416 240 503z" />
<glyph unicode=")" horiz-adv-x="328" d="M28 -209l-15 34q108 39 163 152t55 316q0 390 -218 468l15 35q241 -87 241 -503q0 -415 -241 -502z" />
<glyph unicode="*" horiz-adv-x="503" d="M279 525l83 -120l-26 -18l-85 119l-84 -119l-27 18l83 120l-136 44l10 29l138 -42v144h32v-144l138 42l10 -29z" />
<glyph unicode="+" d="M517 275h-164v-176h-39v176h-164v35h164v175h39v-175h164v-35z" />
<glyph unicode="," horiz-adv-x="194" d="M106 -7q-18 -4 -29.5 5t-11.5 26q0 15 10 25t28 10q40 0 40 -47q0 -31 -21 -67t-56 -50l-18 18q24 9 40.5 34.5t17.5 45.5z" />
<glyph unicode="-" horiz-adv-x="587" d="M476 275h-366v35h366v-35z" />
<glyph unicode="." horiz-adv-x="194" d="M97 -10q-18 0 -28 10.5t-10 26.5q0 15 10.5 25.5t27.5 10.5q18 0 28 -10.5t10 -25.5q0 -16 -10 -26.5t-28 -10.5z" />
<glyph unicode="/" horiz-adv-x="456" d="M427 700l-357 -700h-41l357 700h41z" />
<glyph unicode="0" horiz-adv-x="511" d="M255 571q106 0 161 -76t55 -215t-55.5 -215.5t-160.5 -76.5q-106 0 -161 76t-55 216t55 215.5t161 75.5zM255 535q-178 0 -178 -255q0 -123 44 -189.5t134 -66.5q178 0 178 256q0 255 -178 255z" />
<glyph unicode="1" horiz-adv-x="314" d="M189 0v432q0 18 1 40t2 34v12h-1l-9 -10q-9 -10 -20 -22t-16 -16l-74 -77l-24 26l142 141h36v-560h-37z" />
<glyph unicode="2" horiz-adv-x="479" d="M51 0v42l210 171q69 56 98.5 97t29.5 90q0 59 -40 97.5t-115 38.5q-73 0 -110 -36t-40 -90l-35 10q7 76 60.5 113.5t129.5 37.5q88 0 138 -48t50 -125q0 -56 -31.5 -100.5t-110.5 -109.5l-188 -152l1 -1h82h250v-35h-379z" />
<glyph unicode="3" horiz-adv-x="474" d="M317 295v-3q52 -7 85 -43t33 -95q0 -75 -54 -120.5t-138 -45.5q-83 0 -138.5 45t-65.5 117l34 9q10 -65 56 -100.5t116 -35.5q73 0 112 38.5t39 96.5q0 59 -41 89t-114 30h-51v33h50q72 0 111.5 28.5t39.5 83.5q0 56 -38 85.5t-110 29.5q-81 0 -115 -35.5t-41 -91.5 l-35 10q10 78 63 114.5t133 36.5q89 0 135 -40t46 -103q0 -54 -31.5 -89.5t-80.5 -43.5z" />
<glyph unicode="4" horiz-adv-x="506" d="M374 0h-38v159h-301v38l287 363h52v-366h83v-35h-83v-159zM336 398v125h-2l-262 -328l1 -1h105h158v204z" />
<glyph unicode="5" horiz-adv-x="498" d="M103 299l1 -1q17 24 57.5 44.5t94.5 20.5q85 0 139 -51t54 -136t-55 -136.5t-142 -51.5q-78 0 -133 43t-70 118l34 8q11 -64 57 -99t112 -35q71 0 115.5 41.5t44.5 112.5q0 70 -45 111.5t-121 41.5q-59 0 -96.5 -24t-51.5 -57l-31 9l49 302h297v-36h-270l-21 -125 q-3 -17 -5.5 -33.5t-5 -27.5t-4.5 -20t-3 -14z" />
<glyph unicode="6" horiz-adv-x="490" d="M107 304l2 -1q49 61 141 61q87 0 142 -52t55 -132q0 -84 -57.5 -138t-147.5 -54q-89 0 -145 53.5t-56 143.5t65 174l156 201h44zM244 23q73 0 119 43t47 115q1 68 -44.5 109.5t-121.5 41.5t-121 -41.5t-45 -110.5q0 -71 45.5 -114t120.5 -43z" />
<glyph unicode="7" horiz-adv-x="449" d="M424 529l-298 -529h-41l261 465q8 14 17.5 28.5t14.5 22.5l5 8l-1 1q-38 -1 -72 -1h-280v36h394v-31z" />
<glyph unicode="8" horiz-adv-x="493" d="M39 149q0 63 42 101t99 42v2q-36 4 -75.5 38.5t-39.5 92.5q0 62 48.5 104t132.5 42q83 0 132 -42t49 -103q0 -59 -39.5 -93.5t-73.5 -38.5v-2q55 -4 97 -42t42 -101q0 -73 -56.5 -117t-150.5 -44q-93 0 -150 44t-57 117zM100 423q0 -53 41.5 -83.5t104.5 -30.5 q66 1 106 33.5t40 81.5t-39.5 81.5t-106.5 32.5q-68 0 -107 -32.5t-39 -82.5zM77 150q0 -60 45.5 -94.5t123.5 -34.5t124 34.5t46 94.5q0 59 -45.5 92t-124.5 33t-124 -33t-45 -92z" />
<glyph unicode="9" horiz-adv-x="499" d="M388 252l-1 1q-57 -62 -146 -62t-143 52.5t-54 135.5q0 85 57 138.5t148 53.5q89 0 147.5 -52t58.5 -143q0 -57 -26.5 -109.5t-89.5 -127.5l-119 -139h-45zM249 536q-71 0 -119.5 -40t-48.5 -119q0 -78 48 -116t120 -38q73 0 121 40t48 116q0 78 -49 117.5t-120 39.5z " />
<glyph unicode=":" horiz-adv-x="194" d="M97 347q-18 0 -28 10t-10 26q0 15 10.5 25.5t27.5 10.5q18 0 28 -10t10 -26t-10 -26t-28 -10zM97 -10q-18 0 -28 10.5t-10 26.5q0 15 10.5 25.5t27.5 10.5q18 0 28 -10.5t10 -25.5q0 -16 -10 -26.5t-28 -10.5z" />
<glyph unicode=";" horiz-adv-x="194" d="M97 347q-18 0 -28 10t-10 26q0 15 10.5 25.5t27.5 10.5q18 0 28 -10t10 -26t-10 -26t-28 -10zM106 -7q-18 -4 -29.5 5t-11.5 26q0 15 10 25t28 10q40 0 40 -47q0 -31 -21 -67t-56 -49l-18 17q24 9 40.5 34.5t17.5 45.5z" />
<glyph unicode="&#x3c;" d="M540 46l-451 229v38l451 229v-39l-412 -208v-2l412 -208v-39z" />
<glyph unicode="=" d="M517 356h-367v35h367v-35zM517 196h-367v35h367v-35z" />
<glyph unicode="&#x3e;" d="M540 293v2l-412 208v39l451 -229v-38l-451 -229v39z" />
<glyph unicode="?" horiz-adv-x="557" d="M244 142v181q127 47 178 92t51 108q0 62 -43.5 107.5t-142.5 45.5q-168 0 -208 -155l-35 10q21 90 84.5 136.5t161.5 46.5q113 0 168 -55.5t55 -132.5q0 -44 -18.5 -81t-53.5 -63.5t-71.5 -45t-85.5 -35.5v-159h-40zM263 -10q-18 0 -28 10.5t-10 26.5q0 15 10.5 25.5 t27.5 10.5q18 0 28 -10.5t10 -25.5q0 -16 -10 -26.5t-28 -10.5z" />
<glyph unicode="@" horiz-adv-x="783" d="M509 162h-2q-16 -40 -51.5 -62.5t-82.5 -22.5q-66 0 -113 48t-47 129q0 80 43.5 131.5t116.5 51.5q32 0 58 -9.5t40 -23.5t21 -24t10 -18h2v-92q0 59 -35 96t-93 37q-61 0 -93.5 -41t-32.5 -108t35 -105t91 -38q57 0 89.5 36.5t38.5 94.5v178h36v-223q0 -88 69 -88 q46 0 71 42t25 117q0 142 -88.5 233.5t-225.5 91.5t-225 -92.5t-88 -236.5q0 -146 83 -236.5t221 -90.5q44 0 82.5 7.5t62.5 17t44 22t27 19t11 11.5l26 -21q-46 -47 -118.5 -68t-133.5 -21q-154 0 -246.5 100.5t-92.5 260.5q0 155 99 257.5t249 102.5q151 0 249 -102 t98 -256q0 -88 -34.5 -139t-97.5 -51q-38 0 -66 22.5t-32 62.5z" />
<glyph unicode="A" horiz-adv-x="718" d="M551 221h-383l-98 -221h-41l311 700h39l311 -700h-41zM535 256l-91 205q-13 29 -34 78t-36 83l-14 33h-1l-84 -194l-92 -205h352z" />
<glyph unicode="B" horiz-adv-x="619" d="M402 377v-3q27 -2 55 -12.5t56 -31t45.5 -56.5t17.5 -83q0 -92 -61.5 -141.5t-170.5 -49.5h-257v700h227q96 0 151.5 -46t55.5 -121q0 -68 -35 -107t-84 -49zM126 388h192q74 0 119.5 36t45.5 105q0 63 -46.5 99.5t-128.5 36.5h-182v-277zM126 35h219q88 0 140 39t52 116 t-57 120.5t-138 43.5h-216v-319z" />
<glyph unicode="C" horiz-adv-x="778" d="M689 201l37 -10q-42 -96 -128 -149.5t-197 -53.5q-154 0 -255.5 100t-101.5 264t101.5 263t256.5 99q115 0 197 -53t117 -132l-36 -11q-9 17 -20 34t-35 41t-52.5 41.5t-73 30t-96.5 12.5q-142 0 -231.5 -87.5t-89.5 -237.5q0 -149 90.5 -238t227.5 -89q95 0 172.5 46.5 t116.5 129.5z" />
<glyph unicode="D" horiz-adv-x="718" d="M87 700h215q167 0 269.5 -95.5t102.5 -257.5q0 -161 -101 -254t-262 -93h-224v700zM126 37h184q143 0 234.5 81t91.5 229q0 149 -93 232.5t-242 83.5h-175v-626z" />
<glyph unicode="E" horiz-adv-x="593" d="M87 0v700h451v-37h-412v-274h329v-37h-329v-315h413v-37h-452z" />
<glyph unicode="F" horiz-adv-x="577" d="M538 663h-412v-283h329v-37h-329v-343h-39v700h451v-37z" />
<glyph unicode="G" horiz-adv-x="796" d="M728 0h-36v73t0.5 40.5t0.5 13.5h-1q-16 -20 -37 -40t-56.5 -44.5t-87 -39.5t-110.5 -15q-153 0 -255 100t-102 263q0 165 102 264t258 99q115 0 197 -53t117 -132l-37 -11q-10 22 -27 44t-48.5 50.5t-84 46.5t-116.5 18q-142 0 -232.5 -87.5t-90.5 -236.5 q0 -150 91 -239t229 -89q103 0 182.5 48t106.5 104v133h-225v36h262v-346z" />
<glyph unicode="H" horiz-adv-x="695" d="M569 0v352h-443v-352h-39v700h39v-311h443v311h39v-700h-39z" />
<glyph unicode="I" horiz-adv-x="213" d="M87 0v700h39v-700h-39z" />
<glyph unicode="J" horiz-adv-x="474" d="M392 700v-436q0 -133 -57 -204.5t-164 -71.5q-103 0 -171 84l21 33q58 -80 150 -80q89 0 135 60.5t46 176.5v438h40z" />
<glyph unicode="K" horiz-adv-x="621" d="M556 0l-288 394l-142 -145v-249h-39v700h39v-231v-42v-37.5v-31.5t-0.5 -26t-0.5 -19v-12v-4h1l133 137l261 266h48l-271 -278l304 -423z" />
<glyph unicode="L" horiz-adv-x="561" d="M87 0v700h39v-663h395v-37h-434z" />
<glyph unicode="M" horiz-adv-x="795" d="M669 0v387v38.5t0.5 46t0.5 48t0.5 46t1 38.5t0.5 27v10h-1l-9 -17q-8 -18 -33.5 -65.5t-59.5 -107.5l-158 -279h-27l-156 275q-22 39 -41 73.5t-30 55.5t-19 36.5t-11 21.5l-3 7h-1v-10q0 -10 0.5 -27t0.5 -38.5t0.5 -46t1 -48t0.5 -46v-38.5v-387h-39v700h40l270 -482 h1l270 482h40v-700h-39z" />
<glyph unicode="N" horiz-adv-x="716" d="M590 0l-466 645h-1v-5q0 -5 0.5 -13.5t0.5 -20t0.5 -26t1 -30t0.5 -34v-35.5v-481h-39v700h39l466 -640h1v5q0 5 -0.5 13.5t-0.5 19.5t-0.5 25.5t-1 30t-0.5 33.5v35v478h39v-700h-39z" />
<glyph unicode="O" horiz-adv-x="806" d="M44 351q0 161 103 262t256 101q152 0 255.5 -101t103.5 -262q0 -162 -103 -262.5t-256 -100.5t-256 100.5t-103 262.5zM82 351q0 -149 91.5 -237.5t229.5 -88.5q137 0 229 88.5t92 237.5t-92 237.5t-229 88.5q-138 0 -229.5 -88.5t-91.5 -237.5z" />
<glyph unicode="P" horiz-adv-x="557" d="M87 700h188q121 0 187 -52t66 -154q0 -100 -66.5 -153t-186.5 -53h-149v-288h-39v700zM126 324h149q105 0 159.5 43t54.5 127q0 170 -214 170h-149v-340z" />
<glyph unicode="Q" horiz-adv-x="806" d="M762 351q0 -156 -97 -256t-243 -107v-121h-40v121q-146 8 -242 107.5t-96 255.5q0 161 103 262t256 101q152 0 255.5 -101t103.5 -262zM403 25q137 0 229 88.5t92 237.5t-92 237.5t-229 88.5q-138 0 -229.5 -88.5t-91.5 -237.5t91.5 -237.5t229.5 -88.5z" />
<glyph unicode="R" horiz-adv-x="581" d="M486 0l-173 297q-18 -1 -78 -1h-109v-296h-39v700h189q119 0 185.5 -54.5t66.5 -154.5q0 -162 -174 -188l180 -303h-48zM126 330h156q208 0 208 161q0 87 -57 130t-158 43h-149v-334z" />
<glyph unicode="S" horiz-adv-x="576" d="M39 189l37 10q4 -88 66.5 -131.5t161.5 -43.5q93 0 143.5 38.5t50.5 114.5q0 25 -6.5 46.5t-15 36t-25 27t-30 20t-35.5 14.5t-35.5 10t-37.5 8t-34 7q-27 6 -43 10t-42 12.5t-42 17t-35.5 23t-30.5 31.5t-18.5 41t-7.5 53q0 85 58 132.5t164 47.5q96 0 159.5 -42 t83.5 -128l-37 -10q-32 144 -206 144q-90 0 -136.5 -37t-46.5 -104q0 -32 11.5 -57t28.5 -40t46 -27.5t53 -19t60 -13.5q43 -8 66.5 -13.5t61.5 -21t58.5 -35t36.5 -53.5t16 -79q0 -93 -61.5 -141.5t-174.5 -48.5q-47 0 -88.5 9t-80.5 30.5t-63.5 62.5t-29.5 99z" />
<glyph unicode="T" horiz-adv-x="626" d="M587 663h-255v-663h-38v663h-255v37h548v-37z" />
<glyph unicode="U" horiz-adv-x="689" d="M611 700v-417q0 -295 -267 -295q-266 0 -266 295v417h38v-421q0 -254 228 -254q229 0 229 254v421h38z" />
<glyph unicode="V" horiz-adv-x="662" d="M350 0h-38l-293 700h42l161 -385q18 -42 35.5 -85.5t30 -74.5t22.5 -56t16 -39l5 -13h1l5 13q5 13 15 38t22 55.5t29.5 72.5t35.5 84l163 390h40z" />
<glyph unicode="W" horiz-adv-x="927" d="M635 0l-107 329q-15 46 -31 99.5t-25 82.5l-8 29h-1l-9 -29q-8 -29 -24.5 -84t-32.5 -105l-104 -322h-37l-236 700h40l117 -350q18 -52 42.5 -125.5t40 -119.5t15.5 -47h1q0 1 14 46t33.5 109.5t31.5 101.5l90 277h39l89 -277q12 -37 32 -101.5t34 -109.5t14 -46h1 q0 1 15 47t38.5 117.5t40.5 121.5l121 356h39l-237 -700h-36z" />
<glyph unicode="X" horiz-adv-x="641" d="M574 0l-152 203q-31 41 -57 76.5t-35 47.5l-9 12h-1q-2 0 -105 -138l-148 -201h-47l277 366l-250 334h46l145 -194q84 -114 86 -114h1q1 0 83 114l141 194h46l-248 -335l274 -365h-47z" />
<glyph unicode="Y" horiz-adv-x="629" d="M333 318v-318h-38v318l-276 382h45l181 -250l70 -96h1l8 11q8 11 24.5 35t33.5 48l184 252h44z" />
<glyph unicode="Z" horiz-adv-x="648" d="M603 665l-428 -530q-28 -35 -49 -60t-27 -32l-6 -7l1 -1h4q4 0 11 0.5t16 1t22 0.5h26h430v-37h-559v35l432 532q24 30 44.5 54t28.5 33l8 9l-1 1h-2h-4.5h-8t-11 -0.5t-14.5 -0.5h-18.5h-21.5h-422v37h549v-35z" />
<glyph unicode="[" horiz-adv-x="329" d="M289 -172v-36h-194v1004h194v-36h-154v-932h154z" />
<glyph unicode="\" horiz-adv-x="456" d="M427 0h-42l-356 700h41z" />
<glyph unicode="]" horiz-adv-x="329" d="M41 761v36h194v-1005h-194v36h153v933h-153z" />
<glyph unicode="^" d="M334 675l-239 -310l-30 20l249 322h40l249 -322l-30 -20z" />
<glyph unicode="_" horiz-adv-x="724" d="M637 -30h-550v30h550v-30z" />
<glyph unicode="`" horiz-adv-x="507" d="M221 905l100 -151h-39l-96 138z" />
<glyph unicode="a" horiz-adv-x="583" d="M439 175h-296l-75 -175h-39l243 560h39l243 -560h-40zM424 210l-66 153q-65 152 -65 160h-2l-7 -17q-8 -18 -26 -61.5t-38 -88.5l-62 -146h266z" />
<glyph unicode="b" horiz-adv-x="535" d="M352 299v-3q52 -5 96 -40.5t44 -102.5q0 -69 -50 -111t-133 -42h-222v560h202q72 0 117.5 -39t45.5 -95q0 -104 -100 -127zM125 310h157q52 0 92 28.5t40 82.5q0 45 -36 74.5t-95 29.5h-158v-215zM125 35h184q63 0 103.5 31t40.5 86q0 57 -43 90.5t-107 33.5h-178v-241z " />
<glyph unicode="c" horiz-adv-x="654" d="M565 161l36 -10q-36 -75 -106.5 -119t-158.5 -44q-125 0 -208.5 83t-83.5 209q0 125 83.5 208t207.5 83q84 0 154.5 -41t105.5 -124l-36 -10q-72 139 -222 139q-111 0 -183 -71t-72 -184t72 -184.5t182 -71.5q77 0 137 37.5t92 99.5z" />
<glyph unicode="d" horiz-adv-x="613" d="M87 560h175q139 0 223.5 -76.5t84.5 -205.5q0 -128 -83.5 -203t-217.5 -75h-182v560zM125 36h143q117 0 190.5 63.5t73.5 178.5q0 116 -74.5 181t-196.5 65h-136v-488z" />
<glyph unicode="e" horiz-adv-x="516" d="M87 0v560h370v-36h-332v-213h264v-36h-264v-239h337v-36h-375z" />
<glyph unicode="f" horiz-adv-x="494" d="M454 524h-329v-224h248v-36h-248v-264h-38v560h367v-36z" />
<glyph unicode="g" horiz-adv-x="674" d="M607 0h-36v30v23.5t0.5 17.5t0.5 13v8.5v5.5v1h-1q-90 -111 -233 -111q-128 0 -211 82.5t-83 208.5t83 209t206 83q81 0 153.5 -40t109.5 -125l-36 -10q-25 56 -82 97.5t-142 41.5q-110 0 -182 -71t-72 -185q0 -113 72 -184t184 -71q83 0 146.5 38t86.5 82v91h-183v36 h219v-271z" />
<glyph unicode="h" horiz-adv-x="614" d="M526 0h-37v275h-364v-275h-38v560h38v-249h364v249h37v-560z" />
<glyph unicode="i" horiz-adv-x="212" d="M87 0v560h38v-560h-38z" />
<glyph unicode="j" horiz-adv-x="407" d="M324 560v-350q0 -107 -47 -164.5t-135 -57.5q-90 0 -142 64l21 29q45 -57 121 -57q71 0 108 47t37 137v352h37z" />
<glyph unicode="k" horiz-adv-x="539" d="M475 0l-233 311l-117 -116v-195h-38v560h38v-180v-34v-30.5t-0.5 -25.5t-0.5 -20.5v-15v-10.5v-3h1q51 51 90 89l232 230h49l-227 -224l251 -336h-45z" />
<glyph unicode="l" horiz-adv-x="479" d="M87 0v560h38v-524h315v-36h-353z" />
<glyph unicode="m" horiz-adv-x="689" d="M564 0v309l1 197h-1l-205 -368h-31l-204 370h-1v-8q0 -8 0.5 -21.5t0.5 -30.5v-36t0.5 -37t0.5 -35.5v-29.5v-310h-38v560h47l139 -248q21 -37 39 -71t25 -47l7 -14h2l7 14q7 13 25.5 47t39.5 72l138 247h46v-560h-38z" />
<glyph unicode="n" horiz-adv-x="617" d="M529 0h-37l-368 504h-1v-4q0 -4 0.5 -10.5t0.5 -15.5v-20.5t0.5 -24t0.5 -27v-28.5v-374h-38v560h38l367 -499h1v4v10.5t-0.5 15t-0.5 20v23.5v26v27v373h37v-560z" />
<glyph unicode="o" horiz-adv-x="667" d="M44 279q0 126 83.5 209t205.5 83t206 -83t84 -209q0 -125 -84 -208t-206 -83t-205.5 83t-83.5 208zM82 279q0 -112 72 -183.5t179 -71.5t179.5 71.5t72.5 183.5t-72.5 184t-179.5 72t-179 -71.5t-72 -184.5z" />
<glyph unicode="p" horiz-adv-x="483" d="M87 560h158q101 0 155 -43t54 -119t-54 -119t-155 -43h-120v-236h-38v560zM125 271h121q83 0 126.5 33.5t43.5 92.5q0 60 -43.5 94t-126.5 34h-121v-254z" />
<glyph unicode="q" horiz-adv-x="666" d="M623 279q0 -120 -78 -201.5t-194 -88.5v-105h-38v105q-115 7 -192 88.5t-77 201.5q0 126 83.5 209t205.5 83t206 -83t84 -209zM333 24q107 0 179.5 71.5t72.5 183.5t-72.5 184t-179.5 72t-179 -71.5t-72 -184.5q0 -112 72 -183.5t179 -71.5z" />
<glyph unicode="r" horiz-adv-x="513" d="M423 0l-149 245q-28 -2 -67 -2h-82v-243h-38v560h159q99 0 154 -40t55 -116q0 -64 -38 -104t-104 -50l153 -250h-43zM125 277h121q171 0 171 124q0 123 -171 123h-121v-247z" />
<glyph unicode="s" horiz-adv-x="480" d="M39 138l35 10q7 -61 54 -93.5t121 -32.5q72 0 113 30.5t41 90.5q0 46 -30 74.5t-56 36.5t-86 20l-6 1.5t-5.5 1t-6.5 1.5q-34 7 -54.5 14t-48.5 22.5t-42.5 43t-14.5 66.5q0 70 48 108.5t137 38.5q170 0 199 -134l-35 -10q-26 110 -160 110q-73 0 -112 -29t-39 -82 q0 -30 12 -51.5t37 -34.5t48.5 -20t61.5 -14q28 -5 39.5 -7.5t40 -11t43.5 -19t33 -27.5t26.5 -42t8.5 -56q0 -75 -51 -115t-140 -40q-35 0 -65.5 6.5t-62.5 21.5t-54 46.5t-29 75.5z" />
<glyph unicode="t" horiz-adv-x="526" d="M486 524h-204v-524h-38v524h-205v36h447v-36z" />
<glyph unicode="u" horiz-adv-x="599" d="M522 560v-335q0 -237 -223 -237q-221 0 -221 237v335h38v-339q0 -197 184 -197t184 197v339h38z" />
<glyph unicode="v" horiz-adv-x="582" d="M310 0h-38l-253 560h41l136 -300q19 -41 35.5 -78t27 -60.5t18 -41t11.5 -26.5l3 -8h1l4 8q3 8 10 25t17.5 40t27 59.5t35.5 78.5l138 303h39z" />
<glyph unicode="w" horiz-adv-x="774" d="M525 0l-76 231q-17 50 -32.5 99t-22.5 72l-7 22h-1l-7 -22q-7 -23 -23 -72.5t-32 -99.5l-75 -230h-36l-193 560h39l98 -284q21 -61 39.5 -118t26.5 -82l8 -26h1l8 24q8 25 24 75.5t32 98.5l74 227h35l74 -227q16 -48 32 -98.5t23 -75.5l8 -24h1l8 26q8 25 27 82t40 118 l98 284h38l-193 -560h-36z" />
<glyph unicode="x" horiz-adv-x="548" d="M482 0l-120 151l-91 115h-1q-1 0 -91 -117l-115 -149h-44l227 292l-208 268h45l96 -122q26 -34 51 -66t35 -44l9 -11h1l95 125l91 118h43l-208 -270l231 -290h-46z" />
<glyph unicode="y" horiz-adv-x="516" d="M277 0h-38v251l-220 309h44l106 -149l89 -124h1l91 125l105 148h41l-219 -309v-251z" />
<glyph unicode="z" horiz-adv-x="549" d="M505 525l-304 -364q-26 -32 -47 -56.5t-32 -36.5t-18 -20t-9 -10l-2 -2l1 -1q24 1 66 1h345v-36h-461v35l313 371q22 27 41 49t29.5 34t18 20.5t10.5 11.5l2 3h-2h-65h-339v36h453v-35z" />
<glyph unicode="{" horiz-adv-x="369" d="M192 598v-146q0 -44 -8.5 -76.5t-21.5 -49t-21.5 -23t-16.5 -9.5q8 -3 16.5 -10t21.5 -23.5t21.5 -49.5t8.5 -76v-145q0 -92 35.5 -127.5t98.5 -35.5v-36q-172 0 -172 206v141q0 130 -67 138v36q25 5 37 19q30 34 30 118v142q0 205 172 205v-35q-63 0 -98.5 -35.5 t-35.5 -127.5z" />
<glyph unicode="|" horiz-adv-x="156" d="M60 775h36v-849h-36v849z" />
<glyph unicode="}" horiz-adv-x="369" d="M178 -10v146q0 124 67 158q-11 4 -23.5 14.5t-28 49t-15.5 95.5v145q0 92 -36 127.5t-99 35.5v35q172 0 172 -205v-142q0 -130 67 -138v-35q-27 -5 -41 -24q-26 -36 -26 -114v-141q0 -206 -172 -206v36q63 0 99 35.5t36 127.5z" />
<glyph unicode="~" d="M532 337l6 -35q-12 -16 -40 -30.5t-67 -14.5q-35 0 -97 22t-99 22q-52 0 -97 -47l-8 33q40 50 108 50q36 0 97 -22t98 -22q53 0 99 44z" />
<glyph unicode="&#xa1;" horiz-adv-x="219" d="M110 710q18 0 28 -10.5t10 -26.5q0 -15 -10 -25.5t-28 -10.5t-28 10.5t-10 25.5q0 16 10 26.5t28 10.5zM91 0v558h38v-558h-38z" />
<glyph unicode="&#xa2;" horiz-adv-x="588" d="M299 58q66 0 117.5 31.5t78.5 88.5l35 -11q-29 -64 -86 -102t-127 -43v-109h-34v109q-106 5 -172.5 75.5t-66.5 182.5q0 111 65.5 181t172.5 76v104h35v-104q74 -4 132.5 -43t85.5 -114l-35 -10q-22 59 -73 95.5t-123 36.5q-100 0 -161.5 -61t-61.5 -161t61 -161t157 -61 z" />
<glyph unicode="&#xa3;" horiz-adv-x="499" d="M455 36v-36h-419v36q44 8 58.5 36.5t14.5 79.5q0 45 -7 113h-66v34h62q-7 70 -7 106q0 84 45.5 125t124.5 41q158 0 180 -151l-35 -9q-10 61 -43.5 93t-100.5 32q-134 0 -134 -134q0 -23 8 -103h217v-34h-214q8 -78 8 -112q0 -99 -53 -118l1 -1h31q30 1 77 1.5t89 0.5 h163z" />
<glyph unicode="&#xa4;" horiz-adv-x="638" d="M579 527l-72 -72q70 -73 70 -176q0 -92 -59 -164l76 -77l-24 -23l-75 76q-76 -69 -176 -69q-99 0 -176 69l-76 -76l-23 23l77 78q-59 70 -59 163q0 102 69 176l-73 72l24 23l74 -72q72 59 163 59q93 0 164 -58l73 71zM319 501q-92 0 -156.5 -65t-64.5 -157t64.5 -156.5 t156.5 -64.5q93 0 157 64.5t64 156.5q0 93 -64 157.5t-157 64.5z" />
<glyph unicode="&#xa5;" horiz-adv-x="475" d="M315 341h105v-33h-127l-37 -58h164v-33h-164v-217h-37v217h-163v33l163 1l-37 57h-126v33h104l-140 219h44l115 -183q51 -83 58 -90h1q10 10 59 90l116 183h42z" />
<glyph unicode="&#xa6;" horiz-adv-x="156" d="M96 490h-36v285h36v-285zM96 -74h-36v285h36v-285z" />
<glyph unicode="&#xa7;" d="M466 250q50 -16 75.5 -43.5t25.5 -74.5q0 -74 -59 -109t-163 -35q-43 0 -80.5 5.5t-77 19.5t-65 43.5t-29.5 72.5l37 10q8 -118 213 -118q186 0 186 111q0 20 -5.5 35t-20.5 26t-29 18.5t-45.5 14.5t-54 11t-69.5 11q-33 5 -55 9.5t-53.5 14.5t-50.5 23t-33 34.5 t-14 49.5q0 44 31 72t82 38q-103 32 -103 109q0 44 33 71t76 36t96 9q207 0 232 -142l-34 -10q-15 66 -66 92t-135 26q-163 0 -163 -82q0 -20 10.5 -35.5t25.5 -25t45 -18t54 -13t68 -11.5q40 -6 62 -10.5t52 -12t45 -16t30.5 -21.5t22 -31t6.5 -41q0 -90 -103 -113z M136 380q0 -17 6.5 -30.5t21 -23.5t29.5 -17t42 -13.5t47.5 -10.5t55.5 -9q39 -6 72 -12q55 8 88.5 32t33.5 63q0 28 -15.5 47.5t-45 30t-58.5 16.5t-69 11q-5 0 -8 0.5t-7.5 1t-8.5 1.5q-30 5 -50 9q-56 -7 -95 -30t-39 -66z" />
<glyph unicode="&#xa8;" horiz-adv-x="507" d="M164 783q-13 0 -22.5 10t-9.5 23t9.5 22.5t22.5 9.5q14 0 23.5 -9.5t9.5 -22.5q0 -14 -9.5 -23.5t-23.5 -9.5zM341 783q-13 0 -22.5 9.5t-9.5 23.5t9.5 23t22.5 9q14 0 23.5 -9.5t9.5 -22.5q0 -14 -10 -23.5t-23 -9.5z" />
<glyph unicode="&#xa9;" horiz-adv-x="814" d="M407 629q153 0 258.5 -103.5t105.5 -260.5t-105.5 -260.5t-258.5 -103.5q-152 0 -257.5 103.5t-105.5 260.5t105 260.5t258 103.5zM407 599q-143 0 -237.5 -92t-94.5 -241t94.5 -242t237.5 -93t237.5 92.5t94.5 242.5t-94.5 241.5t-237.5 91.5zM547 191l31 -10 q-23 -49 -71 -77.5t-108 -28.5q-84 0 -138 54t-54 137q0 85 55.5 138t139.5 53q60 0 108 -30t66 -85l-31 -8q-7 29 -42 60.5t-99 31.5q-72 0 -117.5 -43.5t-45.5 -115.5t44 -116t115 -44q103 0 147 84z" />
<glyph unicode="&#xaa;" horiz-adv-x="386" d="M68 235h-33l144 325h28l144 -325h-33l-40 91h-170zM194 521h-2l-5 -12q-5 -12 -15 -36.5t-20 -47.5l-32 -71h146l-32 71q-10 23 -20 47.5t-15 36.5zM351 165v-32h-316v32h316z" />
<glyph unicode="&#xab;" horiz-adv-x="602" d="M295 511l25 -24l-213 -209v-2l213 -209l-25 -24l-235 234zM517 511l25 -24l-212 -209v-2l212 -209l-25 -24l-235 234z" />
<glyph unicode="&#xad;" horiz-adv-x="587" d="M476 275h-366v35h366v-35z" />
<glyph unicode="&#xae;" horiz-adv-x="814" d="M407 629q153 0 258.5 -103.5t105.5 -260.5t-105.5 -260.5t-258.5 -103.5q-152 0 -257.5 103.5t-105.5 260.5t105 260.5t258 103.5zM407 599q-143 0 -237.5 -92t-94.5 -241t94.5 -242t237.5 -93t237.5 92.5t94.5 242.5t-94.5 241.5t-237.5 91.5zM512 82l-94 159 q-17 -2 -42 -2h-48v-157h-33v369h108q66 0 102 -27t36 -78q0 -42 -24 -67.5t-65 -33.5l97 -163h-37zM328 269h76q103 0 103 75t-103 75h-76v-150z" />
<glyph unicode="&#xaf;" horiz-adv-x="507" d="M389 785h-271v34h271v-34z" />
<glyph unicode="&#xb0;" horiz-adv-x="240" d="M120 601q-44 0 -72.5 28.5t-28.5 72.5q0 43 29 72t72 29q44 0 72 -29t28 -72q0 -44 -28 -72.5t-72 -28.5zM120 631q31 0 50.5 20.5t19.5 50.5q0 31 -19.5 50.5t-50.5 19.5q-32 0 -51.5 -19.5t-19.5 -50.5t19.5 -51t51.5 -20z" />
<glyph unicode="&#xb1;" d="M517 333v-35h-164v-175h-39v175h-164v35h164v173h39v-173h164zM150 35h367v-35h-367v35z" />
<glyph unicode="&#xb2;" horiz-adv-x="340" d="M33 470v34l180 144q59 46 59 105q0 38 -25.5 61.5t-73.5 23.5q-46 0 -70 -18.5t-34 -60.5l-29 8q22 103 134 103q61 0 96.5 -32.5t35.5 -84.5q0 -68 -78 -130q-26 -21 -64 -51t-63.5 -49.5t-27.5 -21.5l1 -3q24 3 86 3h149v-31h-276z" />
<glyph unicode="&#xb3;" horiz-adv-x="340" d="M220 675v-3q39 -5 65 -30.5t26 -66.5q0 -50 -38 -81.5t-95 -31.5q-60 0 -101.5 34t-46.5 89l33 8q2 -44 33 -72t82 -28q48 0 74 24.5t26 58.5q0 37 -29 60t-75 23h-37v28h36q46 0 74 22t28 56q0 30 -24 52t-79 22q-50 0 -71.5 -19.5t-29.5 -60.5l-29 8q18 103 133 103 q66 0 99 -29t33 -72q0 -39 -25.5 -65.5t-61.5 -28.5z" />
<glyph unicode="&#xb4;" horiz-adv-x="507" d="M225 754h-39l100 151l35 -13z" />
<glyph unicode="&#xb6;" horiz-adv-x="523" d="M397 -140v663h-101v-663h-38v352q-107 0 -160.5 47.5t-53.5 126.5t53.5 126.5t160.5 47.5h178v-700h-39z" />
<glyph unicode="&#xb7;" horiz-adv-x="194" d="M97 245q-18 0 -28 10.5t-10 26.5t10.5 26t27.5 10q18 0 28 -10.5t10 -25.5q0 -16 -10 -26.5t-28 -10.5z" />
<glyph unicode="&#xb8;" horiz-adv-x="507" d="M359 -95q0 -36 -27.5 -55.5t-77.5 -19.5t-78 18v33q26 -18 75 -18q74 0 74 45q0 26 -26 37.5t-80 13.5v46h34v-23q106 -10 106 -77z" />
<glyph unicode="&#xb9;" horiz-adv-x="340" d="M295 470h-233v31h100v229q0 11 0.5 33t1.5 40v18h-2q-1 0 -29 -30l-54 -52l-22 21l106 102h32v-361h100v-31z" />
<glyph unicode="&#xba;" horiz-adv-x="419" d="M35 396q0 75 50.5 125t123.5 50t124 -50t51 -125q0 -74 -51 -123.5t-124 -49.5t-123.5 49.5t-50.5 123.5zM67 396q0 -61 40.5 -101.5t101.5 -40.5t101.5 40.5t40.5 101.5q0 62 -40.5 103t-101.5 41t-101.5 -41t-40.5 -103zM374 132h-328v32h328v-32z" />
<glyph unicode="&#xbb;" horiz-adv-x="602" d="M85 43l-25 24l212 209v2l-212 209l25 24l235 -234zM307 43l-25 24l213 209v2l-213 209l25 24l235 -234z" />
<glyph unicode="&#xbc;" horiz-adv-x="802" d="M295 308h-233v31h100v229q0 11 0.5 33t1.5 40v18h-2q-1 0 -29 -30l-54 -52l-22 21l106 102h32v-361h100v-31zM524 700l-210 -700h-35l209 700h36zM710 0h-33v108h-196v35l192 250h37v-253h75v-32h-75v-108zM677 140v101q0 18 0.5 36t1.5 31t1.5 23t1.5 15v6h-3 q-1 0 -81.5 -105t-80.5 -106l1 -2h4q3 0 9 0.5t13 0.5h17h19h97z" />
<glyph unicode="&#xbd;" horiz-adv-x="802" d="M295 308h-233v31h100v229q0 11 0.5 33t1.5 40v18h-2q-1 0 -29 -30l-54 -52l-22 21l106 102h32v-361h100v-31zM524 700l-210 -700h-35l209 700h36zM495 0v34l181 144q58 47 58 106q0 38 -25.5 61.5t-73.5 23.5q-46 0 -69.5 -18.5t-34.5 -61.5l-29 9q22 103 134 103 q61 0 96.5 -32.5t35.5 -85.5q0 -67 -77 -130q-104 -84 -156 -121l1 -3q24 3 86 3h149v-32h-276z" />
<glyph unicode="&#xbe;" horiz-adv-x="802" d="M220 513v-3q39 -5 65 -30.5t26 -66.5q0 -50 -38 -81.5t-95 -31.5q-60 0 -101.5 34t-46.5 89l33 8q2 -44 33 -72t82 -28q48 0 74 24.5t26 58.5q0 37 -29 60t-75 23h-37v28h36q46 0 74 22t28 56q0 30 -24 52t-79 22q-50 0 -71.5 -19.5t-29.5 -60.5l-29 8q18 103 133 103 q66 0 99 -29t33 -72q0 -39 -25.5 -65.5t-61.5 -28.5zM524 700l-210 -700h-35l209 700h36zM710 0h-33v108h-196v35l192 250h37v-253h75v-32h-75v-108zM677 140v101q0 18 0.5 36t1.5 31t1.5 23t1.5 15v6h-3q-1 0 -81.5 -105t-80.5 -106l1 -2h4q3 0 9 0.5t13 0.5h17h19h97z" />
<glyph unicode="&#xbf;" horiz-adv-x="557" d="M294 710q18 0 28 -10.5t10 -26.5q0 -15 -10 -25.5t-28 -10.5t-28 10.5t-10 25.5q0 16 10 26.5t28 10.5zM313 558v-181q-127 -47 -178 -92t-51 -108q0 -62 43 -107.5t143 -45.5q169 0 207 155l36 -10q-21 -90 -85 -136.5t-161 -46.5q-114 0 -168.5 55.5t-54.5 132.5 q0 44 18.5 81t53.5 63.5t71.5 45t84.5 35.5v159h41z" />
<glyph unicode="&#xc0;" horiz-adv-x="718" d="M351 754l-96 138l36 13l100 -151h-40zM551 221h-383l-98 -221h-41l311 700h39l311 -700h-41zM535 256l-91 205q-13 29 -34 78t-36 83l-14 33h-1l-84 -194l-92 -205h352z" />
<glyph unicode="&#xc1;" horiz-adv-x="718" d="M358 754h-40l100 151l36 -13zM551 221h-383l-98 -221h-41l311 700h39l311 -700h-41zM535 256l-91 205q-13 29 -34 78t-36 83l-14 33h-1l-84 -194l-92 -205h352z" />
<glyph unicode="&#xc2;" horiz-adv-x="718" d="M254 765l-21 23l125 112l125 -113l-21 -23l-104 94zM551 221h-383l-98 -221h-41l311 700h39l311 -700h-41zM535 256l-91 205q-13 29 -34 78t-36 83l-14 33h-1l-84 -194l-92 -205h352z" />
<glyph unicode="&#xc3;" horiz-adv-x="718" d="M290 822q-40 0 -63 -29l-13 28q29 36 74 36q26 0 66 -18.5t68 -18.5q37 0 60 25l13 -28q-28 -32 -73 -32q-27 0 -67 18.5t-65 18.5zM551 221h-383l-98 -221h-41l311 700h39l311 -700h-41zM535 256l-91 205q-13 29 -34 78t-36 83l-14 33h-1l-84 -194l-92 -205h352z" />
<glyph unicode="&#xc4;" horiz-adv-x="718" d="M270 783q-13 0 -22.5 10t-9.5 23t9.5 22.5t22.5 9.5q14 0 23.5 -9.5t9.5 -22.5q0 -14 -9.5 -23.5t-23.5 -9.5zM447 783q-13 0 -22.5 9.5t-9.5 23.5t9.5 23t22.5 9q14 0 23.5 -9.5t9.5 -22.5q0 -14 -10 -23.5t-23 -9.5zM551 221h-383l-98 -221h-41l311 700h39l311 -700 h-41zM535 256l-91 205q-13 29 -34 78t-36 83l-14 33h-1l-84 -194l-92 -205h352z" />
<glyph unicode="&#xc5;" horiz-adv-x="718" d="M359 743q-37 0 -60 23t-23 57t23 56.5t60 22.5t60 -22.5t23 -56.5t-23 -57t-60 -23zM359 874q-24 0 -38.5 -14t-14.5 -37t14.5 -37.5t38.5 -14.5q23 0 37.5 14.5t14.5 37.5t-14.5 37t-37.5 14zM551 221h-383l-98 -221h-41l311 700h39l311 -700h-41zM535 256l-91 205 q-13 29 -34 78t-36 83l-14 33h-1l-84 -194l-92 -205h352z" />
<glyph unicode="&#xc6;" horiz-adv-x="974" d="M920 36v-36h-451v221h-301l-98 -221h-41l312 700h579v-36h-413v-276h330v-35h-330v-317h413zM469 256v408h-105l-181 -408h286z" />
<glyph unicode="&#xc7;" horiz-adv-x="778" d="M689 201l37 -10q-41 -93 -124.5 -147t-189.5 -56v-6q105 -10 105 -77q0 -36 -27.5 -55.5t-77.5 -19.5t-78 18v33q26 -18 75 -18q74 0 74 45q0 26 -25.5 37.5t-79.5 13.5v30q-145 8 -239.5 107t-94.5 256q0 164 101.5 263t256.5 99q115 0 197 -53t117 -132l-36 -11 q-9 17 -20 34t-35 41t-52.5 41.5t-73 30t-96.5 12.5q-142 0 -231.5 -87.5t-89.5 -237.5q0 -149 90.5 -238t227.5 -89q95 0 172.5 46.5t116.5 129.5z" />
<glyph unicode="&#xc8;" horiz-adv-x="593" d="M250 905l100 -151h-40l-96 138zM87 0v700h451v-37h-412v-274h329v-37h-329v-315h413v-37h-452z" />
<glyph unicode="&#xc9;" horiz-adv-x="593" d="M317 754h-40l100 151l36 -13zM87 0v700h451v-37h-412v-274h329v-37h-329v-315h413v-37h-452z" />
<glyph unicode="&#xca;" horiz-adv-x="593" d="M442 787l-22 -23l-103 94l-104 -93l-22 23l126 112zM87 0v700h451v-37h-412v-274h329v-37h-329v-315h413v-37h-452z" />
<glyph unicode="&#xcb;" horiz-adv-x="593" d="M229 783q-13 0 -22.5 10t-9.5 23t9.5 22.5t22.5 9.5q14 0 23.5 -9.5t9.5 -22.5q0 -14 -10 -23.5t-23 -9.5zM406 783q-14 0 -23.5 9.5t-9.5 23.5q0 13 9.5 22.5t23.5 9.5t23.5 -9.5t9.5 -22.5q0 -14 -9.5 -23.5t-23.5 -9.5zM87 0v700h451v-37h-412v-274h329v-37h-329v-315 h413v-37h-452z" />
<glyph unicode="&#xcc;" horiz-adv-x="213" d="M39 905l100 -151h-40l-95 138zM87 0v700h39v-700h-39z" />
<glyph unicode="&#xcd;" horiz-adv-x="213" d="M106 754h-39l100 151l35 -13zM87 0v700h39v-700h-39z" />
<glyph unicode="&#xce;" horiz-adv-x="213" d="M211 788l-22 -23l-82 89l-82 -88l-22 23l104 111zM87 0v700h39v-700h-39z" />
<glyph unicode="&#xcf;" horiz-adv-x="213" d="M57 783q-13 0 -22.5 10t-9.5 23t9.5 22.5t22.5 9.5q14 0 23.5 -9.5t9.5 -22.5q0 -14 -10 -23.5t-23 -9.5zM157 783q-13 0 -23 9.5t-10 23.5q0 13 9.5 22.5t23.5 9.5t23.5 -9.5t9.5 -22.5q0 -14 -10 -23.5t-23 -9.5zM87 0v700h39v-700h-39z" />
<glyph unicode="&#xd0;" horiz-adv-x="718" d="M87 700h215q167 0 269.5 -95.5t102.5 -257.5q0 -161 -101 -254t-262 -93h-224v353h-75v36h75v311zM126 37h184q143 0 234.5 81t91.5 229q0 149 -93 232.5t-242 83.5h-175v-274h193v-36h-193v-316z" />
<glyph unicode="&#xd1;" horiz-adv-x="716" d="M490 845l13 -28q-28 -32 -73 -32q-27 0 -67 18.5t-65 18.5q-40 0 -63 -29l-13 28q29 36 73 36q25 0 66 -18.5t69 -18.5q37 0 60 25zM590 0l-466 645h-1v-5q0 -5 0.5 -13.5t0.5 -20t0.5 -26t1 -30t0.5 -34v-35.5v-481h-39v700h39l466 -640h1v5q0 5 -0.5 13.5t-0.5 19.5 t-0.5 25.5t-1 30t-0.5 33.5v35v478h39v-700h-39z" />
<glyph unicode="&#xd2;" horiz-adv-x="806" d="M336 905l100 -151h-40l-96 138zM44 351q0 161 103 262t256 101q152 0 255.5 -101t103.5 -262q0 -162 -103 -262.5t-256 -100.5t-256 100.5t-103 262.5zM82 351q0 -149 91.5 -237.5t229.5 -88.5q137 0 229 88.5t92 237.5t-92 237.5t-229 88.5q-138 0 -229.5 -88.5 t-91.5 -237.5z" />
<glyph unicode="&#xd3;" horiz-adv-x="806" d="M403 754h-40l100 151l36 -13zM44 351q0 161 103 262t256 101q152 0 255.5 -101t103.5 -262q0 -162 -103 -262.5t-256 -100.5t-256 100.5t-103 262.5zM82 351q0 -149 91.5 -237.5t229.5 -88.5q137 0 229 88.5t92 237.5t-92 237.5t-229 88.5q-138 0 -229.5 -88.5 t-91.5 -237.5z" />
<glyph unicode="&#xd4;" horiz-adv-x="806" d="M528 787l-22 -23l-103 94l-104 -93l-22 23l126 112zM44 351q0 161 103 262t256 101q152 0 255.5 -101t103.5 -262q0 -162 -103 -262.5t-256 -100.5t-256 100.5t-103 262.5zM82 351q0 -149 91.5 -237.5t229.5 -88.5q137 0 229 88.5t92 237.5t-92 237.5t-229 88.5 q-138 0 -229.5 -88.5t-91.5 -237.5z" />
<glyph unicode="&#xd5;" horiz-adv-x="806" d="M527 845l13 -28q-28 -32 -73 -32q-27 0 -67.5 18.5t-65.5 18.5q-39 0 -62 -29l-13 28q29 36 73 36q26 0 66 -18.5t69 -18.5q37 0 60 25zM44 351q0 161 103 262t256 101q152 0 255.5 -101t103.5 -262q0 -162 -103 -262.5t-256 -100.5t-256 100.5t-103 262.5zM82 351 q0 -149 91.5 -237.5t229.5 -88.5q137 0 229 88.5t92 237.5t-92 237.5t-229 88.5q-138 0 -229.5 -88.5t-91.5 -237.5z" />
<glyph unicode="&#xd6;" horiz-adv-x="806" d="M315 783q-13 0 -22.5 10t-9.5 23t9.5 22.5t22.5 9.5q14 0 23.5 -9.5t9.5 -22.5q0 -14 -10 -23.5t-23 -9.5zM492 783q-14 0 -23.5 9.5t-9.5 23.5q0 13 9.5 22.5t23.5 9.5t23.5 -9.5t9.5 -22.5q0 -14 -9.5 -23.5t-23.5 -9.5zM44 351q0 161 103 262t256 101 q152 0 255.5 -101t103.5 -262q0 -162 -103 -262.5t-256 -100.5t-256 100.5t-103 262.5zM82 351q0 -149 91.5 -237.5t229.5 -88.5q137 0 229 88.5t92 237.5t-92 237.5t-229 88.5q-138 0 -229.5 -88.5t-91.5 -237.5z" />
<glyph unicode="&#xd7;" d="M359 295l131 -131l-25 -24l-131 131l-131 -131l-24 24l131 131l-131 132l24 24l131 -131l131 130l24 -24z" />
<glyph unicode="&#xd8;" horiz-adv-x="806" d="M711 722l-70 -92q121 -105 121 -279q0 -162 -103 -262.5t-256 -100.5q-115 0 -205 59l-72 -95l-28 22l72 94q-126 103 -126 283q0 161 103 262t256 101q119 0 210 -63l70 92zM82 351q0 -163 110 -254l399 525q-81 55 -188 55q-138 0 -229.5 -88.5t-91.5 -237.5zM403 25 q137 0 229 88.5t92 237.5q0 158 -105 250l-399 -525q80 -51 183 -51z" />
<glyph unicode="&#xd9;" horiz-adv-x="689" d="M276 905l100 -151h-40l-96 138zM611 700v-417q0 -295 -267 -295q-266 0 -266 295v417h38v-421q0 -254 228 -254q229 0 229 254v421h38z" />
<glyph unicode="&#xda;" horiz-adv-x="689" d="M343 754h-40l100 151l36 -13zM611 700v-417q0 -295 -267 -295q-266 0 -266 295v417h38v-421q0 -254 228 -254q229 0 229 254v421h38z" />
<glyph unicode="&#xdb;" horiz-adv-x="689" d="M468 787l-22 -23l-103 94l-104 -93l-21 23l125 112zM611 700v-417q0 -295 -267 -295q-266 0 -266 295v417h38v-421q0 -254 228 -254q229 0 229 254v421h38z" />
<glyph unicode="&#xdc;" horiz-adv-x="689" d="M255 783q-13 0 -22.5 10t-9.5 23t9.5 22.5t22.5 9.5q14 0 23.5 -9.5t9.5 -22.5q0 -14 -10 -23.5t-23 -9.5zM432 783q-13 0 -22.5 9.5t-9.5 23.5t9 23t23 9t23.5 -9.5t9.5 -22.5q0 -14 -9.5 -23.5t-23.5 -9.5zM611 700v-417q0 -295 -267 -295q-266 0 -266 295v417h38v-421 q0 -254 228 -254q229 0 229 254v421h38z" />
<glyph unicode="&#xdd;" horiz-adv-x="629" d="M317 754h-39l100 151l35 -13zM333 318v-318h-38v318l-276 382h45l181 -250l70 -96h1l8 11q8 11 24.5 35t33.5 48l184 252h44z" />
<glyph unicode="&#xde;" horiz-adv-x="540" d="M126 547h138q119 0 183 -49.5t64 -143.5t-64 -142.5t-183 -48.5h-138v-163h-39v700h39v-153zM126 199h139q207 0 207 155q0 156 -207 156h-139v-311z" />
<glyph unicode="&#xdf;" horiz-adv-x="567" d="M343 333h7q79 0 131 -44.5t52 -122.5t-51 -128t-133 -50t-135 43l19 29q46 -39 114 -39q66 0 107.5 40t41.5 102q0 61 -39.5 99t-104.5 38h-50v35l111 188l-1 1h-60h-227v-524h-38v560h389l-133 -226v-1z" />
<glyph unicode="&#xe0;" horiz-adv-x="583" d="M284 614l-95 138l35 13l100 -151h-40zM439 175h-296l-75 -175h-39l243 560h39l243 -560h-40zM424 210l-66 153q-65 152 -65 160h-2l-7 -17q-8 -18 -26 -61.5t-38 -88.5l-62 -146h266z" />
<glyph unicode="&#xe1;" horiz-adv-x="583" d="M291 614h-39l100 151l35 -13zM439 175h-296l-75 -175h-39l243 560h39l243 -560h-40zM424 210l-66 153q-65 152 -65 160h-2l-7 -17q-8 -18 -26 -61.5t-38 -88.5l-62 -146h266z" />
<glyph unicode="&#xe2;" horiz-adv-x="583" d="M210 626l-22 23l104 111l104 -112l-22 -23l-82 89zM439 175h-296l-75 -175h-39l243 560h39l243 -560h-40zM424 210l-66 153q-65 152 -65 160h-2l-7 -17q-8 -18 -26 -61.5t-38 -88.5l-62 -146h266z" />
<glyph unicode="&#xe3;" horiz-adv-x="583" d="M226 682q-32 0 -52 -29l-12 30q24 34 64 34q24 0 61 -18.5t62 -18.5q9 0 16.5 1.5t13.5 5t8.5 5.5t7 7t5.5 6l12 -30q-23 -30 -63 -30q-25 0 -63 18.5t-60 18.5zM439 175h-296l-75 -175h-39l243 560h39l243 -560h-40zM424 210l-66 153q-65 152 -65 160h-2l-7 -17 q-8 -18 -26 -61.5t-38 -88.5l-62 -146h266z" />
<glyph unicode="&#xe4;" horiz-adv-x="583" d="M203 643q-13 0 -22 9.5t-9 23.5q0 13 9 22.5t22 9.5q14 0 23.5 -9.5t9.5 -22.5q0 -14 -10 -23.5t-23 -9.5zM380 643q-13 0 -22.5 9.5t-9.5 23.5t9 23t23 9t23.5 -9t9.5 -23t-9.5 -23.5t-23.5 -9.5zM439 175h-296l-75 -175h-39l243 560h39l243 -560h-40zM424 210l-66 153 q-65 152 -65 160h-2l-7 -17q-8 -18 -26 -61.5t-38 -88.5l-62 -146h266z" />
<glyph unicode="&#xe5;" horiz-adv-x="583" d="M292 603q-37 0 -60 23t-23 57t23 56.5t60 22.5t60 -22.5t23 -56.5t-23 -57t-60 -23zM292 734q-23 0 -38 -14.5t-15 -36.5q0 -23 15 -37.5t38 -14.5t38 14.5t15 37.5q0 22 -15 36.5t-38 14.5zM439 175h-296l-75 -175h-39l243 560h39l243 -560h-40zM424 210l-66 153 q-65 152 -65 160h-2l-7 -17q-8 -18 -26 -61.5t-38 -88.5l-62 -146h266z" />
<glyph unicode="&#xe6;" horiz-adv-x="803" d="M749 36v-36h-373v174h-233l-75 -174h-39l243 560h472v-36h-331v-213h264v-36h-264v-239h336zM376 209v316h-83l-135 -316h218z" />
<glyph unicode="&#xe7;" horiz-adv-x="654" d="M565 161l36 -10q-34 -71 -100 -115t-149 -48v-9q106 -9 106 -77q0 -35 -28 -54.5t-78 -19.5t-78 17v33q28 -18 75 -18q75 0 75 45q0 27 -26 38t-80 13v33q-118 6 -196 87.5t-78 203.5q0 125 83.5 208t207.5 83q84 0 154.5 -41t105.5 -124l-36 -10q-72 139 -222 139 q-111 0 -183 -71t-72 -184t72 -184.5t182 -71.5q77 0 137 37.5t92 99.5z" />
<glyph unicode="&#xe8;" horiz-adv-x="516" d="M205 765l101 -151h-40l-96 138zM87 0v560h370v-36h-332v-213h264v-36h-264v-239h337v-36h-375z" />
<glyph unicode="&#xe9;" horiz-adv-x="516" d="M273 614h-40l100 151l36 -13zM87 0v560h370v-36h-332v-213h264v-36h-264v-239h337v-36h-375z" />
<glyph unicode="&#xea;" horiz-adv-x="516" d="M398 647l-22 -23l-103 94l-104 -93l-22 23l126 112zM87 0v560h370v-36h-332v-213h264v-36h-264v-239h337v-36h-375z" />
<glyph unicode="&#xeb;" horiz-adv-x="516" d="M185 643q-13 0 -22.5 10t-9.5 23t9.5 22.5t22.5 9.5t22.5 -9t9.5 -23t-9.5 -23.5t-22.5 -9.5zM362 643q-14 0 -23.5 9.5t-9.5 23.5q0 13 9.5 22.5t23.5 9.5t23.5 -9.5t9.5 -22.5q0 -14 -9.5 -23.5t-23.5 -9.5zM87 0v560h370v-36h-332v-213h264v-36h-264v-239h337v-36 h-375z" />
<glyph unicode="&#xec;" horiz-adv-x="212" d="M39 765l100 -151h-40l-96 138zM87 0v560h38v-560h-38z" />
<glyph unicode="&#xed;" horiz-adv-x="212" d="M106 614h-40l100 151l36 -13zM87 0v560h38v-560h-38z" />
<glyph unicode="&#xee;" horiz-adv-x="212" d="M211 648l-22 -23l-82 89l-83 -88l-21 23l104 111zM87 0v560h38v-560h-38z" />
<glyph unicode="&#xef;" horiz-adv-x="212" d="M57 643q-13 0 -22.5 9.5t-9.5 23.5q0 13 9.5 22.5t22.5 9.5t22.5 -9t9.5 -23t-9.5 -23.5t-22.5 -9.5zM157 643q-13 0 -23 9.5t-10 23.5q0 13 9.5 22.5t23.5 9.5q13 0 22.5 -9t9.5 -23t-9.5 -23.5t-22.5 -9.5zM87 0v560h38v-560h-38z" />
<glyph unicode="&#xf0;" horiz-adv-x="613" d="M87 560h175q139 0 223.5 -76.5t84.5 -205.5q0 -128 -83.5 -203t-217.5 -75h-182v275h-75v35h75v250zM125 36h143q117 0 190.5 63.5t73.5 178.5q0 116 -74.5 181t-196.5 65h-136v-214h193v-35h-193v-239z" />
<glyph unicode="&#xf1;" horiz-adv-x="617" d="M412 705l12 -30q-23 -30 -63 -30q-25 0 -63 18.5t-60 18.5q-32 0 -52 -29l-12 30q24 34 64 34q24 0 61 -18.5t62 -18.5q9 0 16.5 1.5t13.5 5t8.5 5.5t7 7t5.5 6zM529 0h-37l-368 504h-1v-4q0 -4 0.5 -10.5t0.5 -15.5v-20.5t0.5 -24t0.5 -27v-28.5v-374h-38v560h38 l367 -499h1v4v10.5t-0.5 15t-0.5 20v23.5v26v27v373h37v-560z" />
<glyph unicode="&#xf2;" horiz-adv-x="667" d="M267 765l100 -151h-40l-96 138zM44 279q0 126 83.5 209t205.5 83t206 -83t84 -209q0 -125 -84 -208t-206 -83t-205.5 83t-83.5 208zM82 279q0 -112 72 -183.5t179 -71.5t179.5 71.5t72.5 183.5t-72.5 184t-179.5 72t-179 -71.5t-72 -184.5z" />
<glyph unicode="&#xf3;" horiz-adv-x="667" d="M334 614h-40l100 151l36 -13zM44 279q0 126 83.5 209t205.5 83t206 -83t84 -209q0 -125 -84 -208t-206 -83t-205.5 83t-83.5 208zM82 279q0 -112 72 -183.5t179 -71.5t179.5 71.5t72.5 183.5t-72.5 184t-179.5 72t-179 -71.5t-72 -184.5z" />
<glyph unicode="&#xf4;" horiz-adv-x="667" d="M459 647l-21 -23l-104 94l-104 -93l-21 23l125 112zM44 279q0 126 83.5 209t205.5 83t206 -83t84 -209q0 -125 -84 -208t-206 -83t-205.5 83t-83.5 208zM82 279q0 -112 72 -183.5t179 -71.5t179.5 71.5t72.5 183.5t-72.5 184t-179.5 72t-179 -71.5t-72 -184.5z" />
<glyph unicode="&#xf5;" horiz-adv-x="667" d="M443 705l12 -30q-23 -30 -63 -30q-26 0 -63 18.5t-60 18.5q-35 0 -52 -29l-12 30q24 34 64 34q24 0 60.5 -18.5t61.5 -18.5q8 0 15 1.5t11 3t9 5t7 5t5.5 5.5t4.5 5zM44 279q0 126 83.5 209t205.5 83t206 -83t84 -209q0 -125 -84 -208t-206 -83t-205.5 83t-83.5 208z M82 279q0 -112 72 -183.5t179 -71.5t179.5 71.5t72.5 183.5t-72.5 184t-179.5 72t-179 -71.5t-72 -184.5z" />
<glyph unicode="&#xf6;" horiz-adv-x="667" d="M246 643q-13 0 -22.5 10t-9.5 23t9.5 22.5t22.5 9.5q14 0 23.5 -9.5t9.5 -22.5q0 -14 -9.5 -23.5t-23.5 -9.5zM423 643q-13 0 -22.5 9.5t-9.5 23.5t9.5 23t22.5 9q14 0 23.5 -9.5t9.5 -22.5q0 -14 -10 -23.5t-23 -9.5zM44 279q0 126 83.5 209t205.5 83t206 -83t84 -209 q0 -125 -84 -208t-206 -83t-205.5 83t-83.5 208zM82 279q0 -112 72 -183.5t179 -71.5t179.5 71.5t72.5 183.5t-72.5 184t-179.5 72t-179 -71.5t-72 -184.5z" />
<glyph unicode="&#xf7;" d="M334 437q-18 0 -28 10.5t-10 26.5q0 15 10 25t28 10t28 -10t10 -25q0 -16 -10 -26.5t-28 -10.5zM517 275h-367v35h367v-35zM334 81q-18 0 -28 10.5t-10 26.5t10 26t28 10t28 -10.5t10 -25.5q0 -16 -10 -26.5t-28 -10.5z" />
<glyph unicode="&#xf8;" horiz-adv-x="667" d="M586 580l-61 -79q98 -85 98 -222q0 -125 -84 -208t-206 -83q-93 0 -168 51l-62 -80l-27 21l62 81q-94 84 -94 218q0 126 83.5 209t205.5 83q91 0 164 -49l62 79zM82 279q0 -117 78 -190l315 405q-63 41 -142 41q-107 0 -179 -71.5t-72 -184.5zM333 24q107 0 179.5 71.5 t72.5 183.5q0 119 -83 194l-315 -406q63 -43 146 -43z" />
<glyph unicode="&#xf9;" horiz-adv-x="599" d="M234 765l100 -151h-40l-96 138zM522 560v-335q0 -237 -223 -237q-221 0 -221 237v335h38v-339q0 -197 184 -197t184 197v339h38z" />
<glyph unicode="&#xfa;" horiz-adv-x="599" d="M301 614h-40l100 151l36 -13zM522 560v-335q0 -237 -223 -237q-221 0 -221 237v335h38v-339q0 -197 184 -197t184 197v339h38z" />
<glyph unicode="&#xfb;" horiz-adv-x="599" d="M426 647l-21 -23l-104 94l-104 -93l-21 23l125 112zM522 560v-335q0 -237 -223 -237q-221 0 -221 237v335h38v-339q0 -197 184 -197t184 197v339h38z" />
<glyph unicode="&#xfc;" horiz-adv-x="599" d="M213 643q-13 0 -22.5 10t-9.5 23t9.5 22.5t22.5 9.5q14 0 23.5 -9.5t9.5 -22.5q0 -14 -10 -23.5t-23 -9.5zM390 643q-13 0 -22.5 9.5t-9.5 23.5t9 23t23 9t23.5 -9.5t9.5 -22.5q0 -14 -9.5 -23.5t-23.5 -9.5zM522 560v-335q0 -237 -223 -237q-221 0 -221 237v335h38v-339 q0 -197 184 -197t184 197v339h38z" />
<glyph unicode="&#xfd;" horiz-adv-x="516" d="M261 614h-40l100 151l35 -13zM277 0h-38v251l-220 309h44l106 -149l89 -124h1l91 125l105 148h41l-219 -309v-251z" />
<glyph unicode="&#xfe;" horiz-adv-x="447" d="M125 428h87q103 0 154.5 -34t51.5 -109q0 -74 -51.5 -108t-154.5 -34h-87v-143h-38v560h38v-132zM125 177h88q87 0 127 24.5t40 83.5t-41 83.5t-126 24.5h-88v-216z" />
<glyph unicode="&#xff;" horiz-adv-x="516" d="M173 643q-13 0 -22.5 10t-9.5 23t9.5 22.5t22.5 9.5t22.5 -9t9.5 -23t-9.5 -23.5t-22.5 -9.5zM350 643q-14 0 -23.5 9.5t-9.5 23.5q0 13 9.5 22.5t23.5 9.5t23.5 -9.5t9.5 -22.5q0 -14 -9.5 -23.5t-23.5 -9.5zM277 0h-38v251l-220 309h44l106 -149l89 -124h1l91 125 l105 148h41l-219 -309v-251z" />
<glyph unicode="&#x152;" horiz-adv-x="983" d="M925 0h-450q-28 -4 -68 -4q-161 0 -262 98t-101 256t101 256t263 98q37 0 66 -4h450v-37h-412v-274h330v-36h-330v-316h413v-37zM82 351q0 -146 89 -232.5t236 -86.5q33 0 67 8v621q-37 7 -67 7q-147 0 -236 -85.5t-89 -231.5z" />
<glyph unicode="&#x153;" horiz-adv-x="829" d="M770 36v-36h-373q-27 -3 -58 -3q-131 0 -213 78.5t-82 204.5t82 204.5t214 78.5q39 0 58 -3h367v-36h-331v-213h264v-36h-264v-239h336zM340 32q29 0 57 5v486q-30 5 -57 5q-117 0 -187.5 -67t-70.5 -180q0 -114 70.5 -181.5t187.5 -67.5z" />
<glyph unicode="&#x178;" horiz-adv-x="629" d="M229 783q-13 0 -22 9.5t-9 23.5q0 13 9 22.5t22 9.5q14 0 23.5 -9.5t9.5 -22.5q0 -14 -10 -23.5t-23 -9.5zM406 783q-13 0 -22.5 9.5t-9.5 23.5t9 23t23 9t23.5 -9t9.5 -23t-9.5 -23.5t-23.5 -9.5zM333 318v-318h-38v318l-276 382h45l181 -250l70 -96h1l8 11 q8 11 24.5 35t33.5 48l184 252h44z" />
<glyph unicode="&#x2c6;" horiz-adv-x="507" d="M378 787l-21 -23l-104 94l-104 -93l-21 23l125 112z" />
<glyph unicode="&#x2dc;" horiz-adv-x="507" d="M365 845l13 -30q-26 -30 -63 -30q-25 0 -63 18.5t-60 18.5q-33 0 -53 -29l-12 30q24 34 64 34q24 0 61 -18.5t62 -18.5q7 0 12.5 1t10.5 3t8 3t7 4.5t5 4.5l5 5z" />
<glyph unicode="&#x2000;" horiz-adv-x="452" />
<glyph unicode="&#x2001;" horiz-adv-x="905" />
<glyph unicode="&#x2002;" horiz-adv-x="452" />
<glyph unicode="&#x2003;" horiz-adv-x="905" />
<glyph unicode="&#x2004;" horiz-adv-x="301" />
<glyph unicode="&#x2005;" horiz-adv-x="226" />
<glyph unicode="&#x2006;" horiz-adv-x="150" />
<glyph unicode="&#x2007;" horiz-adv-x="150" />
<glyph unicode="&#x2008;" horiz-adv-x="113" />
<glyph unicode="&#x2009;" horiz-adv-x="181" />
<glyph unicode="&#x200a;" horiz-adv-x="50" />
<glyph unicode="&#x2010;" horiz-adv-x="587" d="M476 275h-366v35h366v-35z" />
<glyph unicode="&#x2011;" horiz-adv-x="587" d="M476 275h-366v35h366v-35z" />
<glyph unicode="&#x2012;" horiz-adv-x="587" d="M476 275h-366v35h366v-35z" />
<glyph unicode="&#x2013;" d="M558 275h-448v35h448v-35z" />
<glyph unicode="&#x2014;" horiz-adv-x="1023" d="M913 275h-803v35h803v-35z" />
<glyph unicode="&#x2018;" horiz-adv-x="194" d="M88 613q18 4 29.5 -4.5t11.5 -25.5q0 -16 -10 -26t-28 -10q-40 0 -40 47q0 32 21 68.5t56 50.5l18 -23q-23 -9 -40 -33.5t-18 -43.5z" />
<glyph unicode="&#x2019;" horiz-adv-x="194" d="M106 646q-18 -4 -29.5 5t-11.5 26q0 16 10 25.5t28 9.5q40 0 40 -47q0 -31 -21 -68t-56 -50l-18 23q23 8 40 32.5t18 43.5z" />
<glyph unicode="&#x201a;" horiz-adv-x="194" d="M106 -11q-18 -4 -29.5 5t-11.5 26q0 16 10 25.5t28 9.5q40 0 40 -47q0 -31 -21 -68t-56 -50l-18 23q23 8 40 32.5t18 43.5z" />
<glyph unicode="&#x201c;" horiz-adv-x="354" d="M246 613q18 4 29 -4.5t11 -25.5q0 -16 -10 -26t-28 -10t-29 12.5t-11 34.5q0 32 21 68.5t56 50.5l18 -23q-23 -9 -39.5 -33.5t-17.5 -43.5zM86 613q17 4 28.5 -4.5t11.5 -25.5q0 -16 -10 -26t-28 -10q-40 0 -40 47q0 32 21 68.5t56 50.5l18 -23q-23 -9 -40 -33.5 t-17 -43.5z" />
<glyph unicode="&#x201d;" horiz-adv-x="354" d="M106 646q-18 -4 -29.5 5t-11.5 26q0 16 10 25.5t28 9.5q40 0 40 -47q0 -31 -21 -68t-56 -50l-18 23q23 8 40 32.5t18 43.5zM266 646q-18 -4 -29.5 5t-11.5 26q0 16 10 25.5t28 9.5q40 0 40 -47q0 -31 -21 -68t-56 -50l-18 23q23 8 40 32.5t18 43.5z" />
<glyph unicode="&#x201e;" horiz-adv-x="334" d="M106 -11q-18 -4 -29.5 5t-11.5 26q0 16 10 25.5t28 9.5q40 0 40 -47q0 -31 -21 -68t-56 -50l-18 23q23 8 40 32.5t18 43.5zM246 -11q-18 -4 -29.5 5t-11.5 26q0 16 10 25.5t28 9.5q40 0 40 -47q0 -31 -21 -68t-56 -50l-18 23q23 8 40 32.5t18 43.5z" />
<glyph unicode="&#x2022;" horiz-adv-x="307" d="M154 219q-28 0 -47.5 19t-19.5 47t19.5 47t47.5 19t47 -19t19 -47t-19 -47t-47 -19z" />
<glyph unicode="&#x2026;" horiz-adv-x="654" d="M90 -11q-15 0 -23.5 8.5t-8.5 21.5t8.5 21.5t23.5 8.5q14 0 22.5 -8.5t8.5 -21.5t-8 -21.5t-23 -8.5zM322 -11q-15 0 -23.5 8.5t-8.5 21.5t8.5 21.5t23.5 8.5q14 0 22.5 -8.5t8.5 -21.5t-8 -21.5t-23 -8.5zM564 -11q-14 0 -22.5 8.5t-8.5 21.5t8 21.5t23 8.5 q14 0 22.5 -8.5t8.5 -21.5t-8 -21.5t-23 -8.5z" />
<glyph unicode="&#x202f;" horiz-adv-x="181" />
<glyph unicode="&#x2039;" horiz-adv-x="380" d="M295 511l25 -24l-213 -209v-2l213 -209l-25 -24l-235 234z" />
<glyph unicode="&#x203a;" horiz-adv-x="380" d="M85 43l-25 24l212 209v2l-212 209l25 24l235 -234z" />
<glyph unicode="&#x205f;" horiz-adv-x="226" />
<glyph unicode="&#x20ac;" horiz-adv-x="609" d="M521 141l35 -11q-25 -66 -79.5 -104t-138.5 -38q-106 0 -168.5 59.5t-76.5 169.5h-49v33h45q0 6 -0.5 17t-0.5 16l1 25h-45v33h48q12 109 73 169.5t166 60.5q84 0 144 -39t76 -111l-36 -10q-12 48 -55.5 86.5t-125.5 38.5q-92 0 -142 -51t-61 -144h214v-33h-217l-1 -24 q0 -6 0.5 -17.5t0.5 -16.5h217v-33h-213q27 -192 208 -192q135 0 181 116z" />
<glyph unicode="&#x2122;" horiz-adv-x="766" d="M679 375h-33v152v25v27v25.5t0.5 23.5t0.5 19v13v5h-1l-4 -11q-5 -10 -13.5 -27.5t-16.5 -32.5l-75 -144h-29l-74 144q-7 14 -16.5 32.5t-15.5 28.5l-5 10h-1v-9v-24t0.5 -32.5t0.5 -37v-35.5v-152h-32v325h47l85 -167q7 -13 13 -26.5t9 -18.5l3 -6h1q2 2 26 50l84 168 h46v-325zM299 700v-31h-114v-294h-33v294h-113v31h260z" />
<glyph unicode="&#x25fc;" horiz-adv-x="560" d="M0 560h560v-560h-560v560z" />
</font>
</defs>
</svg>
