<?xml version="1.0" standalone="no"?>
<!DOCTYPE svg PUBLIC "-//W3C//DTD SVG 1.1//EN" "http://www.w3.org/Graphics/SVG/1.1/DTD/svg11.dtd" >
<svg xmlns="http://www.w3.org/2000/svg">
<metadata></metadata>
<defs>
<font id="novecento_sans_widebook" horiz-adv-x="668" >
<font-face units-per-em="1000" ascent="821" descent="-179" />
<missing-glyph horiz-adv-x="250" />
<glyph horiz-adv-x="1000" />
<glyph horiz-adv-x="1000" />
<glyph unicode="&#xd;" horiz-adv-x="1000" />
<glyph unicode=" "  horiz-adv-x="250" />
<glyph unicode="&#x09;" horiz-adv-x="250" />
<glyph unicode="&#xa0;" horiz-adv-x="250" />
<glyph unicode="!" horiz-adv-x="238" d="M148 700v-549h-58v549h58zM119 -10q-21 0 -33 12.5t-12 30.5q0 19 12 30.5t33 11.5q22 0 33.5 -12t11.5 -30q0 -19 -12 -31t-33 -12z" />
<glyph unicode="&#x22;" horiz-adv-x="277" d="M104 700l-4 -224h-48l-3 224h55zM226 700l-4 -224h-48l-4 224h56z" />
<glyph unicode="#" horiz-adv-x="660" d="M439 168h103l-13 -50h-104l-31 -118h-50l32 118h-182l-31 -118h-49l31 118h-104l14 50h104l61 226h-102l13 50h102l32 116h49l-32 -116h182l31 116h50l-32 -116h106l-14 -50h-105zM269 394l-60 -226h181l60 226h-181z" />
<glyph unicode="$" horiz-adv-x="465" d="M428 146q0 -70 -45 -111t-122 -46v-79h-47v79q-156 12 -177 150l51 13q7 -56 47.5 -87t105.5 -31q61 0 96.5 29t35.5 81q0 42 -27 69t-52.5 35t-79.5 20q-9 2 -13 3q-32 7 -52 14.5t-46.5 23.5t-40 44.5t-13.5 67.5q0 64 41.5 103.5t114.5 45.5v80h48v-80 q143 -9 171 -134l-51 -14q-23 103 -140 103q-62 0 -96 -28t-34 -74q0 -52 35.5 -74.5t107.5 -37.5q31 -7 48.5 -11.5t46.5 -17.5t45 -28.5t29 -43.5t13 -64z" />
<glyph unicode="%" horiz-adv-x="701" d="M159 217q-124 0 -124 176q0 177 124 177t124 -177q0 -176 -124 -176zM466 560l-189 -560h-44l189 560h44zM159 258q83 0 83 135q0 71 -20.5 103t-62.5 32q-82 0 -82 -135t82 -135zM542 -7q-124 0 -124 177q0 178 124 178t124 -178q0 -177 -124 -177zM542 35q82 0 82 135 t-82 135q-42 0 -62.5 -32t-20.5 -103q0 -135 83 -135z" />
<glyph unicode="&#x26;" horiz-adv-x="608" d="M489 265v-82q0 -96 -56.5 -145.5t-162.5 -49.5q-103 0 -157.5 43.5t-54.5 117.5q0 59 34 96.5t85 45.5v2q-45 9 -78.5 43t-33.5 92q0 68 49.5 105.5t141.5 37.5q194 0 230 -150l-51 -14q-30 116 -175 116q-138 0 -138 -98q0 -48 36.5 -78.5t104.5 -30.5h316v-50zM433 266 h-171q-67 0 -107.5 -29t-40.5 -85q0 -55 39.5 -85.5t116.5 -30.5q163 0 163 147v83z" />
<glyph unicode="'" horiz-adv-x="155" d="M104 700l-4 -224h-48l-3 224h55z" />
<glyph unicode="(" horiz-adv-x="340" d="M307 796l19 -53q-212 -73 -212 -451q0 -195 53 -304.5t159 -146.5l-19 -52q-249 88 -249 503q0 414 249 504z" />
<glyph unicode=")" horiz-adv-x="340" d="M34 -211l-19 52q105 37 158 146.5t53 304.5t-53 305t-158 147l19 52q249 -90 249 -504q0 -415 -249 -503z" />
<glyph unicode="*" horiz-adv-x="497" d="M284 522l80 -114l-35 -25l-81 114l-80 -114l-35 25l80 114l-130 41l13 40l131 -40v137h43v-137l131 40l13 -40z" />
<glyph unicode="+" d="M520 266h-159v-171h-54v171h-160v50h160v170h54v-170h159v-50z" />
<glyph unicode="," horiz-adv-x="207" d="M106 -4q-18 -4 -30 6.5t-12 28.5t12 29.5t32 11.5q22 0 35 -14.5t13 -40.5q0 -34 -22.5 -70.5t-60.5 -50.5l-24 25q24 9 39.5 32t17.5 43z" />
<glyph unicode="-" horiz-adv-x="584" d="M478 266h-373v50h373v-50z" />
<glyph unicode="." horiz-adv-x="207" d="M104 -10q-22 0 -34 12.5t-12 30.5t12.5 30t33.5 12t33 -12t12 -30q0 -19 -12.5 -31t-32.5 -12z" />
<glyph unicode="/" horiz-adv-x="469" d="M443 700l-355 -700h-62l356 700h61z" />
<glyph unicode="0" horiz-adv-x="515" d="M258 571q106 0 162.5 -75.5t56.5 -215.5t-57 -216t-162 -76q-107 0 -163 76t-56 216t56 215.5t163 75.5zM258 519q-164 0 -164 -239q0 -240 164 -240q163 0 163 240q0 239 -163 239z" />
<glyph unicode="1" horiz-adv-x="327" d="M186 0v406q0 18 1 41t2 37l1 13h-2l-8 -9q-9 -10 -19 -21.5t-15 -15.5l-68 -69l-34 39l146 139h52v-560h-56z" />
<glyph unicode="2" horiz-adv-x="484" d="M50 0v62l207 163q65 52 93 90.5t28 82.5q0 53 -36.5 88.5t-104.5 35.5q-67 0 -101 -33t-37 -82l-52 14q9 76 63 113t132 37q91 0 141.5 -47.5t50.5 -125.5q0 -58 -32 -101.5t-111 -105.5l-175 -139l1 -2h11q11 0 30.5 0.5t41.5 0.5h237v-51h-387z" />
<glyph unicode="3" horiz-adv-x="481" d="M325 295v-4q52 -6 84.5 -41.5t32.5 -94.5q0 -75 -54.5 -121t-141.5 -46q-84 0 -140 44.5t-67 116.5l49 14q10 -59 52.5 -92t106.5 -33q68 0 104 35t36 88q0 54 -38 81.5t-105 27.5h-53v45h52q138 0 138 103q0 51 -35 78t-100 27q-75 0 -106.5 -32t-38.5 -84l-50 14 q11 77 65 113.5t136 36.5q91 0 137.5 -39.5t46.5 -104.5q0 -55 -32 -90t-79 -42z" />
<glyph unicode="4" horiz-adv-x="514" d="M384 0h-55v154h-295v52l270 354h80v-357h84v-49h-84v-154zM329 384v127h-2l-239 -307l1 -1h100h140v181z" />
<glyph unicode="5" horiz-adv-x="500" d="M117 306l2 -1q16 22 53.5 40.5t87.5 18.5q86 0 140 -51.5t54 -135.5q0 -85 -56 -137t-145 -52q-79 0 -135 42.5t-71 115.5l49 12q10 -57 53 -89t103 -32q65 0 106.5 38t41.5 103q0 64 -42 102t-111 38q-55 0 -89.5 -22t-47.5 -51l-46 13l51 302h302v-52h-264l-18 -111 q-4 -24 -8.5 -46.5t-7 -33t-2.5 -11.5z" />
<glyph unicode="6" horiz-adv-x="494" d="M126 309l2 -1q47 55 131 55q85 0 139.5 -51t54.5 -131q0 -85 -58 -139t-150 -54q-91 0 -148.5 53.5t-57.5 144.5t70 183l149 191h62zM246 38q69 0 111 39t42 105q1 63 -40.5 101t-112.5 38q-70 0 -111 -38t-41 -102q0 -65 41.5 -104t110.5 -39z" />
<glyph unicode="7" horiz-adv-x="458" d="M434 517l-291 -517h-59l245 436q10 17 21 34.5t17 27.5l6 9l-2 1h-72h-269v52h404v-43z" />
<glyph unicode="8" horiz-adv-x="497" d="M39 150q0 62 40 99.5t95 43.5v2q-34 4 -72 38t-38 91q0 62 49.5 104.5t134.5 42.5t135 -42.5t50 -103.5q0 -57 -38 -91.5t-72 -38.5v-2q54 -6 94.5 -43.5t40.5 -99.5q0 -73 -56.5 -117.5t-152.5 -44.5t-153 44.5t-57 117.5zM114 421q0 -49 38 -77t96 -27q61 1 98 30 t37 75q0 47 -36.5 76t-98.5 29t-98 -29.5t-36 -76.5zM92 153q0 -56 42 -87.5t114 -31.5t114 31.5t42 87.5q0 54 -41.5 84t-114.5 30t-114.5 -30t-41.5 -84z" />
<glyph unicode="9" horiz-adv-x="503" d="M373 246l-1 1q-52 -55 -135 -55q-88 0 -141.5 52t-53.5 134q0 85 58.5 139t150.5 54q91 0 150.5 -52.5t59.5 -144.5q0 -59 -27 -112.5t-88 -124.5l-119 -137h-64zM251 522q-66 0 -110.5 -37t-44.5 -109q0 -71 44 -106t111 -35q68 0 111.5 36.5t43.5 106.5 q0 71 -44.5 107.5t-110.5 36.5z" />
<glyph unicode=":" horiz-adv-x="207" d="M104 343q-22 0 -34 12t-12 31q0 18 12.5 30t33.5 12t33 -12t12 -30q0 -19 -12 -31t-33 -12zM104 -10q-22 0 -34 12.5t-12 30.5t12.5 30t33.5 12t33 -12t12 -30q0 -19 -12.5 -31t-32.5 -12z" />
<glyph unicode=";" horiz-adv-x="207" d="M104 343q-22 0 -34 12t-12 31q0 18 12.5 30t33.5 12t33 -12t12 -30q0 -19 -12 -31t-33 -12zM106 -4q-19 -3 -30.5 7t-11.5 28t12 29.5t32 11.5q22 0 35 -14.5t13 -40.5q0 -34 -22.5 -70.5t-60.5 -50.5l-24 25q24 9 39.5 32t17.5 43z" />
<glyph unicode="&#x3c;" d="M541 44l-451 223v49l451 224v-55l-390 -192v-3l390 -192v-54z" />
<glyph unicode="=" d="M520 352h-373v50h373v-50zM520 182h-373v50h373v-50z" />
<glyph unicode="&#x3e;" d="M517 290v3l-390 192v55l451 -224v-49l-451 -223v54z" />
<glyph unicode="?" horiz-adv-x="560" d="M237 151v179q123 45 172.5 87t49.5 100t-40 99.5t-132 41.5q-154 0 -192 -142l-54 14q22 90 86.5 137t163.5 47q114 0 170.5 -56t56.5 -134q0 -44 -18 -81t-52 -63.5t-69 -44.5t-82 -35v-149h-60zM266 -10q-22 0 -34 12.5t-12 30.5t12.5 30t33.5 12t33 -12t12 -30 q0 -19 -12 -31t-33 -12z" />
<glyph unicode="@" horiz-adv-x="785" d="M548 422v-216q0 -88 62 -88q42 0 65 40.5t23 110.5q0 139 -85 227t-220 88t-220.5 -89.5t-85.5 -231.5q0 -146 80.5 -232.5t212.5 -86.5q27 0 52 3t43.5 7.5t36.5 11t29.5 12.5t23 13.5t17 11.5t11.5 9l6 6l34 -27q-42 -44 -114 -66.5t-137 -22.5q-154 0 -247.5 98.5 t-93.5 264.5q0 156 99.5 259t252.5 103q154 0 252.5 -102.5t98.5 -257.5q0 -89 -36.5 -142t-102.5 -53q-39 0 -68 22t-35 59h-2q-15 -37 -49.5 -59t-79.5 -22q-67 0 -115 48.5t-48 131.5t44.5 134.5t116.5 51.5q39 0 68 -15.5t39 -28t15 -24.5h2v52h55zM377 121 q53 0 82 33.5t34 87.5v25q0 55 -32 88.5t-84 33.5q-55 0 -84.5 -37t-29.5 -99t31.5 -97t82.5 -35z" />
<glyph unicode="A" horiz-adv-x="724" d="M547 205h-371l-89 -205h-61l306 700h61l305 -700h-62zM525 258l-85 195q-12 27 -31.5 73.5l-32.5 77.5l-13 30h-2l-13 -30q-13 -30 -33 -77t-31 -73l-85 -196h326z" />
<glyph unicode="B" horiz-adv-x="621" d="M414 377v-3q27 -3 54 -14.5t53.5 -31.5t43 -55t16.5 -80q0 -91 -62 -142t-173 -51h-263v700h237q95 0 152 -47.5t57 -122.5q0 -66 -34 -104t-81 -49zM140 393h179q68 0 110 33.5t42 96.5q0 58 -43 92t-118 34h-170v-256zM140 51h204q82 0 129.5 36t47.5 107t-52 111.5 t-127 40.5h-202v-295z" />
<glyph unicode="C" horiz-adv-x="774" d="M670 209l56 -15q-42 -97 -128.5 -151.5t-197.5 -54.5q-154 0 -256.5 100.5t-102.5 263.5q0 164 101.5 263t257.5 99q115 0 198 -53.5t118 -134.5l-56 -16q-11 22 -28 43.5t-47.5 47.5t-78.5 42t-106 16q-134 0 -217.5 -83t-83.5 -224t85 -225.5t214 -84.5 q90 0 162.5 44.5t109.5 122.5z" />
<glyph unicode="D" horiz-adv-x="723" d="M83 700h226q166 0 269.5 -96t103.5 -257q0 -160 -101.5 -253.5t-263.5 -93.5h-234v700zM140 54h175q135 0 222 76.5t87 216.5q0 141 -88.5 220t-228.5 79h-167v-592z" />
<glyph unicode="E" horiz-adv-x="596" d="M83 0v700h460v-54h-403v-250h318v-55h-318v-287h404v-54h-461z" />
<glyph unicode="F" horiz-adv-x="580" d="M541 646h-401v-262h320v-54h-320v-330h-57v700h458v-54z" />
<glyph unicode="G" horiz-adv-x="793" d="M729 0h-53v66.5t0.5 37t0.5 12.5h-1q-22 -28 -52 -53t-92 -50t-133 -25q-152 0 -255 100.5t-103 262.5q0 164 102.5 263.5t258.5 99.5q115 0 198 -53.5t118 -134.5l-56 -16q-8 16 -19 32.5t-33.5 38.5t-49.5 38.5t-68.5 28t-89.5 11.5q-134 0 -218.5 -83.5t-84.5 -223.5 q0 -141 86 -225.5t217 -84.5q97 0 171.5 44.5t101.5 96.5v118h-218v54h272v-355z" />
<glyph unicode="H" horiz-adv-x="698" d="M558 0v341h-418v-341h-57v700h57v-304h418v304h58v-700h-58z" />
<glyph unicode="I" horiz-adv-x="223" d="M83 0v700h57v-700h-57z" />
<glyph unicode="J" horiz-adv-x="480" d="M403 700v-429q0 -136 -59 -209.5t-171 -73.5q-106 0 -173 82l32 47q55 -75 142 -75q170 0 170 229v429h59z" />
<glyph unicode="K" horiz-adv-x="633" d="M274 380l-134 -138v-242h-57v700h57v-225v-40v-35.5v-29.5t-0.5 -24.5t-0.5 -18v-11.5v-4h2l124 130l249 258h71l-268 -279l298 -422l-68 1z" />
<glyph unicode="L" horiz-adv-x="562" d="M83 0v700h57v-646h384v-54h-441z" />
<glyph unicode="M" horiz-adv-x="798" d="M658 0v355v43t0.5 47.5t1 47.5t0.5 44.5t0.5 36.5t0.5 26v9h-2l-9 -17q-8 -18 -32.5 -63t-55.5 -101l-144 -256h-37l-143 253q-21 36 -38.5 68t-28 52.5t-18 35.5t-11.5 21l-3 7h-2v-9q0 -10 0.5 -26t0.5 -36.5t0.5 -44.5t1 -47.5t0.5 -47.5v-43v-355h-57v700h60 l256 -457h2l255 457h60v-700h-58z" />
<glyph unicode="N" horiz-adv-x="721" d="M580 0l-441 611h-2v-5q0 -5 0.5 -13.5t0.5 -20t0.5 -26.5t1 -30.5t0.5 -34v-36.5v-445h-57v700h58l441 -606h1v5q0 5 -0.5 13.5t-0.5 20v26t-0.5 30t-0.5 33.5v35v443h57v-700h-58z" />
<glyph unicode="O" horiz-adv-x="804" d="M41 351q0 161 103.5 262t257.5 101t257.5 -101t103.5 -262t-103.5 -262t-257.5 -101t-257.5 101t-103.5 262zM99 351q0 -141 86.5 -225t216.5 -84t216.5 84t86.5 225q0 140 -86.5 224t-216.5 84t-216.5 -84t-86.5 -224z" />
<glyph unicode="P" horiz-adv-x="566" d="M83 700h198q122 0 189 -53.5t67 -157.5q0 -102 -67.5 -157t-188.5 -55h-141v-277h-57v700zM140 330h142q198 0 198 158t-198 158h-142v-316z" />
<glyph unicode="Q" horiz-adv-x="804" d="M763 351q0 -153 -94.5 -252.5t-237.5 -109.5v-123h-59v123q-143 10 -237 109.5t-94 252.5q0 161 103.5 262t257.5 101t257.5 -101t103.5 -262zM402 42q130 0 216.5 84t86.5 225q0 140 -86.5 224t-216.5 84t-216.5 -84t-86.5 -224q0 -141 86.5 -225t216.5 -84z" />
<glyph unicode="R" horiz-adv-x="590" d="M478 0l-167 287h-72h-99v-287h-57v700h200q120 0 188 -56t68 -157q0 -159 -168 -190l177 -297h-70zM140 335h149q192 0 192 150q0 81 -52 121t-146 40h-143v-311z" />
<glyph unicode="S" horiz-adv-x="583" d="M37 187l55 15q4 -82 63 -122t152 -40q86 0 133.5 35.5t47.5 105.5q0 27 -6.5 48t-21 35.5t-27.5 25t-38 18.5t-38.5 11.5t-42.5 9.5t-38 8q-47 10 -76.5 20t-66.5 31t-56 56.5t-19 84.5q0 87 60 136t168 49q98 0 163.5 -42.5t86.5 -129.5l-56 -15q-32 135 -194 135 q-83 0 -126.5 -34.5t-43.5 -95.5q0 -30 11.5 -52.5t27.5 -37t44.5 -26t51.5 -17.5t59 -13q41 -8 66 -14t61.5 -21.5t57 -35.5t36 -54t15.5 -79q0 -96 -62.5 -145t-178.5 -49q-48 0 -89 9t-81 30t-66 62t-32 98z" />
<glyph unicode="T" horiz-adv-x="631" d="M592 646h-248v-646h-58v646h-248v54h554v-54z" />
<glyph unicode="U" horiz-adv-x="692" d="M619 700v-413q0 -147 -69 -223t-204 -76q-136 0 -204.5 76t-68.5 223v413h59v-415q0 -122 52.5 -182.5t161.5 -60.5q110 0 162.5 60.5t52.5 182.5v415h58z" />
<glyph unicode="V" horiz-adv-x="673" d="M369 0h-65l-286 700h63l154 -377q17 -42 33.5 -83.5t28 -71t20.5 -53t14 -35.5l5 -13h2l12 31q12 31 37 93.5t51 126.5l155 382h62z" />
<glyph unicode="W" horiz-adv-x="948" d="M639 0l-104 323q-14 46 -29 96.5t-23 78.5l-8 28h-2l-8 -28q-8 -28 -23.5 -80t-30.5 -101l-101 -317h-60l-231 700h62l112 -342q17 -51 39.5 -120.5t36 -111.5t13.5 -43h2q0 1 12.5 42t31 101.5t30.5 97.5l86 274h64l86 -274q12 -37 30 -97.5t30.5 -101.5t12.5 -42h2 q0 1 13.5 43t35 109.5t37.5 116.5l116 348h58l-232 -700h-58z" />
<glyph unicode="X" horiz-adv-x="658" d="M567 0l-142 191q-27 37 -53 72.5t-34 46.5l-9 11h-1q-2 0 -100 -132l-138 -189h-70l274 366l-250 334h70l136 -183q82 -111 84 -111h1l79 112l132 182h69l-248 -336l271 -364h-71z" />
<glyph unicode="Y" horiz-adv-x="642" d="M349 312v-312h-57v312l-274 388h67l170 -241l67 -94h1l7 11q8 11 24 34t33 47l173 243h64z" />
<glyph unicode="Z" horiz-adv-x="650" d="M607 646l-409 -496q-27 -33 -47.5 -57.5t-26.5 -31.5l-7 -7l1 -2h4q4 0 11.5 0.5t17 1t23 0.5h26.5h407v-54h-564v53l414 501q23 28 43.5 51t28.5 31l8 9l-2 2h-3q-4 0 -10.5 -0.5t-16 -0.5h-23.5h-29h-400v54h554v-54z" />
<glyph unicode="[" horiz-adv-x="345" d="M304 -156v-53h-210v1006h210v-53h-151v-900h151z" />
<glyph unicode="\" horiz-adv-x="469" d="M443 0h-62l-355 700h61z" />
<glyph unicode="]" horiz-adv-x="345" d="M40 745v53h210v-1006h-210v53h152v900h-152z" />
<glyph unicode="^" d="M334 658l-226 -293l-43 29l241 313h56l241 -313l-44 -29z" />
<glyph unicode="_" horiz-adv-x="726" d="M644 -45h-561v45h561v-45z" />
<glyph unicode="`" horiz-adv-x="519" d="M233 909l102 -155h-56l-95 138z" />
<glyph unicode="a" horiz-adv-x="588" d="M436 164h-285l-67 -164h-58l237 560h63l236 -560h-58zM415 213l-58 141q-19 45 -34.5 84t-21.5 55l-6 16h-2q0 -5 -66 -162l-55 -134h243z" />
<glyph unicode="b" horiz-adv-x="538" d="M364 299v-3q51 -6 92.5 -41.5t41.5 -99.5q0 -69 -50.5 -112t-137.5 -43h-227v560h211q73 0 119 -40t46 -97q0 -100 -95 -124zM138 315h145q48 0 84 26t36 75q0 41 -32.5 68t-86.5 27h-146v-196zM138 49h171q58 0 95 28.5t37 78.5q0 52 -39.5 82.5t-97.5 30.5h-166v-220z " />
<glyph unicode="c" horiz-adv-x="650" d="M548 166l53 -15q-36 -75 -106.5 -119t-159.5 -44q-126 0 -210 83t-84 209q0 125 84 208t209 83q86 0 157 -41.5t105 -123.5l-53 -14q-36 62 -80 91q-54 36 -126 36q-105 0 -172.5 -66.5t-67.5 -172.5t67.5 -173t170.5 -67q73 0 128 34.5t85 91.5z" />
<glyph unicode="d" horiz-adv-x="615" d="M83 560h183q138 0 223 -76t85 -206q0 -128 -84 -203t-218 -75h-189v560zM138 52h133q110 0 178.5 59t68.5 167t-69 169t-184 61h-127v-456z" />
<glyph unicode="e" horiz-adv-x="520" d="M83 0v560h379v-52h-324v-191h255v-51h-255v-214h329v-52h-384z" />
<glyph unicode="f" horiz-adv-x="496" d="M457 508h-319v-206h239v-52h-239v-250h-55v560h374v-52z" />
<glyph unicode="g" horiz-adv-x="674" d="M609 0h-51v36.5v26t0.5 16t0.5 9.5v4h-1q-85 -104 -222 -104q-128 0 -211.5 82.5t-83.5 208.5t84 209t208 83q83 0 155.5 -40.5t108.5 -124.5l-52 -14q-24 52 -77.5 90t-132.5 38q-103 0 -170.5 -67t-67.5 -174q0 -106 68 -172.5t176 -66.5q75 0 134.5 33.5t82.5 73.5v83 h-177v50h228v-280z" />
<glyph unicode="h" horiz-adv-x="615" d="M532 0h-55v265h-339v-265h-55v560h55v-243h339v243h55v-560z" />
<glyph unicode="i" horiz-adv-x="221" d="M83 0v560h55v-560h-55z" />
<glyph unicode="j" horiz-adv-x="414" d="M337 560v-343q0 -110 -49.5 -169.5t-142.5 -59.5q-92 0 -145 63l31 41q43 -52 114 -52q136 0 136 177v343h56z" />
<glyph unicode="k" horiz-adv-x="553" d="M469 0l-219 300l-112 -113v-187h-55v560h55v-170v-33.5v-29.5v-25t-0.5 -20.5t-0.5 -14.5v-9v-4h2l83 84l220 222h71l-222 -223l244 -337h-66z" />
<glyph unicode="l" horiz-adv-x="481" d="M83 0v560h55v-508h305v-52h-360z" />
<glyph unicode="m" horiz-adv-x="694" d="M556 0v298l1 181h-2l-189 -342h-40l-189 345h-2v-8q0 -7 0.5 -19t0.5 -27v-32.5t0.5 -34.5t0.5 -33v-28v-300h-54v560h68l130 -232q19 -35 36 -67t24 -45l7 -13h2q1 0 7.5 12.5t24.5 46t37 67.5l128 231h65v-560h-56z" />
<glyph unicode="n" horiz-adv-x="622" d="M540 0h-56l-346 476h-2v-4q0 -4 0.5 -10.5t0.5 -15.5v-20.5t0.5 -23.5t0.5 -26.5v-28.5v-347h-55v560h57l344 -470h2v4q0 3 -0.5 9.5t-0.5 15v19.5t-0.5 22.5t-0.5 25.5v27v347h56v-560z" />
<glyph unicode="o" horiz-adv-x="666" d="M41 279q0 126 84 209t207 83q124 0 208 -83t84 -209q0 -125 -84 -208t-208 -83q-123 0 -207 83t-84 208zM97 279q0 -105 67.5 -172t167.5 -67t168 67t68 172q0 106 -67.5 173t-168.5 67q-100 0 -167.5 -67t-67.5 -173z" />
<glyph unicode="p" horiz-adv-x="493" d="M83 560h168q103 0 158 -45t55 -123t-55 -122.5t-158 -44.5h-113v-225h-55v560zM138 273h115q76 0 115.5 31.5t39.5 86.5q0 56 -39.5 87t-115.5 31h-115v-236z" />
<glyph unicode="q" horiz-adv-x="665" d="M624 279q0 -118 -75 -199t-189 -91v-105h-56v105q-114 11 -188.5 92t-74.5 198q0 126 84 209t207 83q124 0 208 -83t84 -209zM332 40q100 0 168 67t68 172q0 106 -67.5 173t-168.5 67q-100 0 -167.5 -67t-67.5 -173q0 -105 67.5 -172t167.5 -67z" />
<glyph unicode="r" horiz-adv-x="523" d="M419 0l-143 235q-25 -2 -65 -2h-73v-233h-55v560h170q101 0 157 -42t56 -120q0 -63 -36.5 -102.5t-98.5 -51.5l149 -244h-61zM138 280h116q156 0 156 115q0 114 -156 114h-116v-229z" />
<glyph unicode="s" horiz-adv-x="489" d="M37 139l51 13q7 -56 51 -86.5t115 -30.5q66 0 104 27.5t38 82.5q0 16 -3 29t-10.5 24t-13.5 18.5t-21 15t-22.5 11.5t-27.5 9t-27.5 7t-31 7t-30.5 6q-25 5 -42.5 10t-41.5 16.5t-39 26t-25.5 39t-10.5 56.5q0 72 50.5 111.5t141.5 39.5q174 0 205 -135l-50 -14 q-26 102 -151 102q-67 0 -103 -26.5t-36 -75.5q0 -28 11 -47t35.5 -31.5t47 -18.5t62.5 -14q31 -6 48 -10t48 -16t48 -28t31 -45t14 -66q0 -78 -53 -118t-145 -40q-36 0 -67.5 6.5t-64 22t-55.5 46.5t-30 76z" />
<glyph unicode="t" horiz-adv-x="533" d="M495 508h-201v-508h-55v508h-201v52h457v-52z" />
<glyph unicode="u" horiz-adv-x="605" d="M531 560v-328q0 -244 -230 -244q-228 0 -228 244v328h57v-334q0 -186 173 -186t173 186v334h55z" />
<glyph unicode="v" horiz-adv-x="592" d="M326 0h-61l-247 560h61l128 -288q27 -63 49 -114.5t31 -72.5l9 -21h2l3 8q3 8 10 24.5t16.5 39t25 58.5t33.5 76l129 290h58z" />
<glyph unicode="w" horiz-adv-x="791" d="M528 0l-73 225q-16 48 -31 95.5t-22 67.5l-6 21h-1l-7 -21q-6 -21 -21 -68t-31 -95l-73 -225h-55l-189 560h59l91 -273q19 -58 37 -112.5t26 -78.5l7 -23h1l7 23q7 23 22 70.5t31 94.5l70 220h55l70 -220q15 -47 30 -94.5t22 -70.5l7 -23h1l7 23q8 24 26 78.5t37 112.5 l92 273h55l-189 -560h-55z" />
<glyph unicode="x" horiz-adv-x="560" d="M473 0l-111 142q-25 32 -47 60.5t-30 38.5l-8 10h-1q-1 0 -86 -111l-106 -140h-64l223 291l-204 269h66l89 -116q23 -31 47 -62.5t33 -41.5l8 -11h1q1 0 90 118l84 113h62l-205 -270l226 -290h-67z" />
<glyph unicode="y" horiz-adv-x="527" d="M291 0h-56v242l-217 318h65l98 -143q21 -30 42 -61t31 -46l11 -15h1l85 122l98 143h60l-218 -318v-242z" />
<glyph unicode="z" horiz-adv-x="553" d="M509 508l-287 -336q-40 -46 -66.5 -76t-33.5 -36l-6 -7l1 -2q26 1 70 1h322v-52h-466v52l298 344q33 38 58 66.5t32 36.5l7 8l-1 1h-68h-317v52h457v-52z" />
<glyph unicode="{" horiz-adv-x="384" d="M206 584v-132q0 -44 -9 -76.5t-23 -49t-23 -23.5t-17 -10q7 -2 16.5 -9.5t23.5 -24t23 -49.5t9 -76v-131q0 -91 36.5 -126.5t99.5 -35.5v-51q-190 0 -190 215v131q-1 124 -69 132v51q26 5 39 20q30 33 30 112v131q0 214 190 214v-51q-63 0 -99.5 -35t-36.5 -126z" />
<glyph unicode="|" horiz-adv-x="170" d="M60 775h50v-849h-50v849z" />
<glyph unicode="}" horiz-adv-x="384" d="M179 3v132q0 44 9 76.5t23.5 49t22.5 22.5t17 10q-7 2 -16.5 9.5t-23.5 24.5t-23 50t-9 76v131q0 91 -36.5 126t-100.5 35v52q191 0 191 -215v-131q-1 -125 68 -132h1v-51q-33 -6 -49 -33q-20 -34 -20 -99v-131q0 -215 -191 -215v52q64 0 100.5 35t36.5 126z" />
<glyph unicode="~" d="M533 341l9 -49q-12 -16 -40.5 -31t-68.5 -15q-36 0 -98 22t-100 22q-53 0 -98 -47l-12 48q43 50 111 50q36 0 97.5 -22t99.5 -22q54 0 100 44z" />
<glyph unicode="&#xa1;" horiz-adv-x="238" d="M119 710q22 0 34 -12.5t12 -30.5t-12.5 -30t-33.5 -12t-33 12t-12 30q0 19 12 31t33 12zM91 0v549h58v-549h-58z" />
<glyph unicode="&#xa2;" horiz-adv-x="586" d="M299 72q62 0 109.5 29.5t72.5 82.5l52 -15q-28 -63 -84 -102t-125 -46v-107h-49v107q-103 8 -168.5 79t-65.5 181q0 109 64 179t169 78v104h50v-104q72 -6 129.5 -44.5t84.5 -112.5l-52 -15q-21 56 -68.5 89.5t-114.5 33.5q-94 0 -150.5 -57t-56.5 -151t56.5 -151.5 t146.5 -57.5z" />
<glyph unicode="&#xa3;" horiz-adv-x="504" d="M461 52v-52h-425v52q41 8 55 34t14 73t-6 96h-63v48h58q-8 76 -8 103q0 82 47 123.5t128 41.5q166 0 187 -154l-52 -14q-9 58 -40.5 88t-93.5 30q-121 0 -121 -123q0 -37 8 -95h208v-48h-203q6 -68 6 -95q0 -89 -47 -108l1 -1h12t29 0.5t40.5 0.5h50.5h54h161z" />
<glyph unicode="&#xa4;" horiz-adv-x="641" d="M586 522l-71 -71q66 -72 66 -172q0 -90 -58 -161l75 -76l-32 -32l-74 75q-76 -66 -172 -66q-97 0 -171 66l-75 -75l-31 32l75 76q-57 70 -57 161q0 99 65 172l-72 71l32 32l74 -72q71 58 160 58q92 0 162 -57l73 71zM320 487q-86 0 -146 -60.5t-60 -147.5t60 -147 t146 -60q88 0 148 60t60 147t-60 147.5t-148 60.5z" />
<glyph unicode="&#xa5;" horiz-adv-x="485" d="M338 352h92v-45h-120l-34 -55h154v-46h-160v-206h-56v206h-159v46h154l-34 55h-120v45h92l-127 208h63l107 -180q8 -13 21 -34t22 -35.5t9 -15.5h2q0 1 9.5 15.5t22.5 35.5t21 34l107 180h61z" />
<glyph unicode="&#xa6;" horiz-adv-x="170" d="M110 490h-50v285h50v-285zM110 -74h-50v285h50v-285z" />
<glyph unicode="&#xa7;" d="M476 251q95 -32 95 -118q0 -145 -226 -145q-44 0 -82.5 6t-77.5 20t-64.5 43t-30.5 71l54 15q10 -110 198 -110q171 0 171 102q0 22 -9.5 37t-23.5 25t-44 18t-57 13t-78 13q-2 0 -3.5 0.5t-3.5 0.5q-32 5 -53.5 10t-51.5 15.5t-48 23t-31.5 34.5t-13.5 49q0 83 105 111 q-95 32 -95 108q0 44 32.5 72.5t76.5 38.5t100 10q208 0 237 -141l-49 -14q-27 111 -190 111q-149 0 -149 -76q0 -16 5.5 -28.5t20 -22t27.5 -15.5t40.5 -12t45.5 -9t56 -9q46 -7 72.5 -13t57.5 -16t47 -23t27 -33.5t11 -48.5q0 -87 -98 -113zM151 379q0 -20 11 -35 t26 -24.5t44.5 -17.5t52.5 -12.5t64 -10.5q8 -2 29 -5.5t32 -5.5q50 8 79.5 30.5t29.5 57.5q0 18 -6 32.5t-23 25t-27.5 16.5t-40.5 12t-39.5 8t-46.5 7q-13 2 -20 3q-9 1 -24.5 3.5t-20.5 3.5q-120 -17 -120 -88z" />
<glyph unicode="&#xa8;" horiz-adv-x="519" d="M167 780q-16 0 -27 11.5t-11 27.5t11.5 27t27.5 11t27 -11t11 -27q0 -17 -11 -28t-28 -11zM350 780q-16 0 -27.5 11t-11.5 28q0 16 11.5 27t27.5 11t27 -11t11 -27t-11 -27.5t-27 -11.5z" />
<glyph unicode="&#xa9;" horiz-adv-x="810" d="M404 629q153 0 258.5 -103t105.5 -261q0 -157 -105.5 -260.5t-258.5 -103.5t-258 103.5t-105 260.5q0 158 105 261t258 103zM404 591q-140 0 -232 -89.5t-92 -235.5t92 -236.5t232 -90.5t232.5 90.5t92.5 236.5q0 145 -92.5 235t-232.5 90zM534 193l41 -13 q-23 -48 -70 -76.5t-107 -28.5q-85 0 -139 53.5t-54 136.5q0 85 55.5 138.5t139.5 53.5q61 0 108.5 -29.5t64.5 -84.5l-41 -11q-6 26 -38.5 54.5t-91.5 28.5q-67 0 -109.5 -41t-42.5 -108t41.5 -108t107.5 -41q94 0 135 76z" />
<glyph unicode="&#xaa;" horiz-adv-x="392" d="M77 235h-42l140 325h43l139 -325h-43l-36 85h-164zM196 515h-1l-5 -11q-4 -12 -13.5 -35.5t-19.5 -45.5l-29 -68h135l-29 68q-9 22 -19 46t-15 35zM357 166v-42h-322v42h322z" />
<glyph unicode="&#xab;" horiz-adv-x="622" d="M295 512l35 -34l-203 -199v-2l203 -199l-35 -34l-235 234zM527 512l35 -34l-203 -199v-2l203 -199l-35 -34l-235 234z" />
<glyph unicode="&#xad;" horiz-adv-x="584" d="M478 266h-373v50h373v-50z" />
<glyph unicode="&#xae;" horiz-adv-x="810" d="M404 629q153 0 258.5 -103t105.5 -261q0 -157 -105.5 -260.5t-258.5 -103.5t-258 103.5t-105 260.5q0 158 105 261t258 103zM404 591q-140 0 -232 -89.5t-92 -235.5t92 -236.5t232 -90.5t232.5 90.5t92.5 236.5q0 145 -92.5 235t-232.5 90zM503 82l-90 154q-16 -2 -39 -2 h-43v-152h-45v369h116q67 0 104.5 -28.5t37.5 -80.5q0 -41 -23.5 -66t-63.5 -33l95 -161h-49zM331 272h72q95 0 95 69t-95 69h-72v-138z" />
<glyph unicode="&#xaf;" horiz-adv-x="519" d="M400 780h-281v50h281v-50z" />
<glyph unicode="&#xb0;" horiz-adv-x="249" d="M124 596q-46 0 -76 30t-30 76t30 75.5t76 29.5q47 0 77 -29.5t30 -75.5q0 -47 -30 -76.5t-77 -29.5zM124 635q30 0 48.5 19t18.5 48t-18.5 47.5t-48.5 18.5q-29 0 -47.5 -18.5t-18.5 -47.5t18.5 -48t47.5 -19z" />
<glyph unicode="&#xb1;" d="M520 352v-50h-159v-167h-54l-1 167h-159v50h159v168h55v-168h159zM147 50h373v-50h-373v50z" />
<glyph unicode="&#xb2;" horiz-adv-x="340" d="M32 470v48l173 134q58 44 58 99q0 35 -23.5 56.5t-67.5 21.5q-42 0 -64.5 -17t-32.5 -57l-38 11q23 104 137 104q62 0 97 -32t35 -86q0 -68 -74 -127q-25 -20 -60.5 -47t-61.5 -46l-25 -20l1 -4q24 3 81 3h143v-41h-278z" />
<glyph unicode="&#xb3;" horiz-adv-x="340" d="M224 675v-3q38 -5 63 -30.5t25 -66.5q0 -50 -38 -81.5t-95 -31.5q-62 0 -103.5 34t-46.5 89l42 10q2 -42 30 -67t76 -25q44 0 68 22.5t24 54.5q0 34 -26.5 55t-69.5 21h-35v34h34q43 0 68 20.5t25 52.5q0 28 -22 48t-72 20q-45 0 -65.5 -18.5t-28.5 -57.5l-37 11 q17 104 135 104q66 0 99.5 -29t33.5 -73q0 -39 -24.5 -65t-59.5 -28z" />
<glyph unicode="&#xb4;" horiz-adv-x="519" d="M240 754h-56l101 155l50 -17z" />
<glyph unicode="&#xb6;" horiz-adv-x="548" d="M408 -140v646h-96v-646h-58v348q-106 0 -159.5 48t-53.5 129q0 80 53.5 127.5t159.5 47.5h212v-700h-58z" />
<glyph unicode="&#xb7;" horiz-adv-x="207" d="M104 239q-22 0 -34 12t-12 31q0 18 12.5 30t33.5 12t33 -12t12 -30t-12.5 -30.5t-32.5 -12.5z" />
<glyph unicode="&#xb8;" horiz-adv-x="519" d="M368 -92q0 -38 -29.5 -58.5t-83.5 -20.5q-52 0 -80 17v43q27 -17 74 -17q73 0 73 42q0 25 -26.5 35.5t-82.5 12.5v51h46v-24q109 -9 109 -81z" />
<glyph unicode="&#xb9;" horiz-adv-x="340" d="M298 470h-236v41h96v209q0 79 3 88h-2l-29 -29l-49 -48l-28 28l107 103h42v-351h96v-41z" />
<glyph unicode="&#xba;" horiz-adv-x="418" d="M35 397q0 75 50.5 124.5t122.5 49.5q73 0 124 -49.5t51 -124.5q0 -74 -51 -124t-124 -50q-72 0 -122.5 50t-50.5 124zM77 397q0 -58 37 -95.5t94 -37.5q58 0 95 37.5t37 95.5t-37 95.5t-95 37.5q-57 0 -94 -37.5t-37 -95.5zM374 123h-328v42h328v-42z" />
<glyph unicode="&#xbb;" horiz-adv-x="622" d="M95 44l-35 34l203 199v2l-203 199l35 34l235 -234zM327 44l-35 34l203 199v2l-203 199l35 34l235 -234z" />
<glyph unicode="&#xbc;" horiz-adv-x="809" d="M298 308h-236v41h96v209q0 79 3 88h-2l-29 -29l-49 -48l-28 28l107 103h42v-351h96v-41zM533 700l-210 -700h-47l209 700h48zM722 0h-43v104h-192v43l180 245h55v-247h71v-41h-71v-104zM679 145v97q0 17 0.5 33t1 28t1 21.5t0.5 15.5l1 5h-3q-1 0 -74 -98.5t-73 -99.5 l1 -3h4h8.5t12.5 0.5t16 0.5h18h86z" />
<glyph unicode="&#xbd;" horiz-adv-x="809" d="M298 308h-236v41h96v209q0 79 3 88h-2l-29 -29l-49 -48l-28 28l107 103h42v-351h96v-41zM533 700l-210 -700h-47l209 700h48zM502 0v47l173 135q57 43 57 98q0 35 -23.5 56.5t-67.5 21.5q-42 0 -64.5 -17t-31.5 -56l-38 10q23 105 137 105q61 0 96.5 -32.5t35.5 -85.5 q0 -67 -75 -127q-25 -20 -61 -48t-60 -46t-26 -20l1 -3q24 3 81 3h143v-41h-277z" />
<glyph unicode="&#xbe;" horiz-adv-x="809" d="M224 513v-3q38 -5 63 -30.5t25 -66.5q0 -50 -38 -81.5t-95 -31.5q-62 0 -103.5 34t-46.5 89l42 10q2 -42 30 -67t76 -25q44 0 68 22.5t24 54.5q0 34 -26.5 55t-69.5 21h-35v34h34q43 0 68 20.5t25 52.5q0 28 -22 48t-72 20q-45 0 -65.5 -18.5t-28.5 -57.5l-37 11 q17 104 135 104q66 0 99.5 -29t33.5 -73q0 -39 -24.5 -65t-59.5 -28zM533 700l-210 -700h-47l209 700h48zM722 0h-43v104h-192v43l180 245h55v-247h71v-41h-71v-104zM679 145v97q0 17 0.5 33t1 28t1 21.5t0.5 15.5l1 5h-3q-1 0 -74 -98.5t-73 -99.5l1 -3h4h8.5t12.5 0.5 t16 0.5h18h86z" />
<glyph unicode="&#xbf;" horiz-adv-x="560" d="M294 710q21 0 33 -12.5t12 -30.5q0 -19 -12 -30.5t-33 -11.5q-22 0 -33.5 12t-11.5 30q0 19 12 31t33 12zM322 549v-179q-123 -44 -172 -86.5t-49 -100.5t40 -99.5t131 -41.5q156 0 192 142l54 -14q-21 -90 -85.5 -137t-163.5 -47q-114 0 -171 56t-57 134q0 44 18.5 81 t52.5 63.5t69 44.5t82 35v149h59z" />
<glyph unicode="&#xc0;" horiz-adv-x="724" d="M345 754l-96 138l50 17l102 -155h-56zM547 205h-371l-89 -205h-61l306 700h61l305 -700h-62zM525 258l-85 195q-12 27 -31.5 73.5l-32.5 77.5l-13 30h-2l-13 -30q-13 -30 -33 -77t-31 -73l-85 -196h326z" />
<glyph unicode="&#xc1;" horiz-adv-x="724" d="M372 754h-56l102 155l49 -17zM547 205h-371l-89 -205h-61l306 700h61l305 -700h-62zM525 258l-85 195q-12 27 -31.5 73.5l-32.5 77.5l-13 30h-2l-13 -30q-13 -30 -33 -77t-31 -73l-85 -196h326z" />
<glyph unicode="&#xc2;" horiz-adv-x="724" d="M256 761l-29 33l134 115l132 -116l-29 -33l-103 92zM547 205h-371l-89 -205h-61l306 700h61l305 -700h-62zM525 258l-85 195q-12 27 -31.5 73.5l-32.5 77.5l-13 30h-2l-13 -30q-13 -30 -33 -77t-31 -73l-85 -196h326z" />
<glyph unicode="&#xc3;" horiz-adv-x="724" d="M291 817q-43 0 -66 -28l-15 42q28 35 77 35q27 0 69 -18t71 -18q38 0 64 26l15 -42q-28 -32 -77 -32q-28 0 -70 17.5t-68 17.5zM547 205h-371l-89 -205h-61l306 700h61l305 -700h-62zM525 258l-85 195q-12 27 -31.5 73.5l-32.5 77.5l-13 30h-2l-13 -30q-13 -30 -33 -77 t-31 -73l-85 -196h326z" />
<glyph unicode="&#xc4;" horiz-adv-x="724" d="M270 780q-15 0 -26 11.5t-11 27.5t11 27t27 11t27 -11t11 -27q0 -17 -11.5 -28t-27.5 -11zM453 780q-17 0 -28 11t-11 28q0 16 11.5 27t27.5 11t27.5 -11t11.5 -27t-11.5 -27.5t-27.5 -11.5zM547 205h-371l-89 -205h-61l306 700h61l305 -700h-62zM525 258l-85 195 q-12 27 -31.5 73.5l-32.5 77.5l-13 30h-2l-13 -30q-13 -30 -33 -77t-31 -73l-85 -196h326z" />
<glyph unicode="&#xc5;" horiz-adv-x="724" d="M362 741q-41 0 -66.5 24t-25.5 62t25.5 62t66.5 24q40 0 65.5 -24t25.5 -62t-25.5 -62t-65.5 -24zM362 876q-23 0 -37 -13.5t-14 -35.5t14 -35.5t37 -13.5q22 0 36 13.5t14 35.5t-14 35.5t-36 13.5zM547 205h-371l-89 -205h-61l306 700h61l305 -700h-62zM525 258l-85 195 q-12 27 -31.5 73.5l-32.5 77.5l-13 30h-2l-13 -30q-13 -30 -33 -77t-31 -73l-85 -196h326z" />
<glyph unicode="&#xc6;" horiz-adv-x="979" d="M927 52v-52h-460v207h-290l-89 -207h-62l306 700h594v-52h-403v-254h320v-51h-320v-291h404zM467 257v391h-99l-169 -391h268z" />
<glyph unicode="&#xc7;" horiz-adv-x="774" d="M670 209l56 -15q-40 -92 -120.5 -146.5t-184.5 -59.5q99 -12 99 -80q0 -38 -29.5 -58.5t-83.5 -20.5q-52 0 -80 17v43q27 -17 74 -17q73 0 73 42q0 25 -26.5 35.5t-82.5 12.5v27q-142 11 -233 110t-91 253q0 164 101.5 263t257.5 99q115 0 198 -53.5t118 -134.5l-56 -16 q-11 22 -28 43.5t-47.5 47.5t-78.5 42t-106 16q-134 0 -217.5 -83t-83.5 -224t85 -225.5t214 -84.5q90 0 162.5 44.5t109.5 122.5z" />
<glyph unicode="&#xc8;" horiz-adv-x="596" d="M254 909l102 -155h-56l-96 138zM83 0v700h460v-54h-403v-250h318v-55h-318v-287h404v-54h-461z" />
<glyph unicode="&#xc9;" horiz-adv-x="596" d="M327 754h-56l102 155l49 -17zM83 0v700h460v-54h-403v-250h318v-55h-318v-287h404v-54h-461z" />
<glyph unicode="&#xca;" horiz-adv-x="596" d="M448 793l-28 -33l-104 92l-105 -91l-29 33l134 115zM83 0v700h460v-54h-403v-250h318v-55h-318v-287h404v-54h-461z" />
<glyph unicode="&#xcb;" horiz-adv-x="596" d="M225 780q-15 0 -26 11.5t-11 27.5t11 27t27 11t27 -11t11 -27q0 -17 -11 -28t-28 -11zM408 780q-16 0 -27.5 11t-11.5 28q0 16 11.5 27t27.5 11t27.5 -11t11.5 -27t-11.5 -27.5t-27.5 -11.5zM83 0v700h460v-54h-403v-250h318v-55h-318v-287h404v-54h-461z" />
<glyph unicode="&#xcc;" horiz-adv-x="223" d="M49 909l102 -155h-56l-96 138zM83 0v700h57v-700h-57z" />
<glyph unicode="&#xcd;" horiz-adv-x="223" d="M122 754h-56l102 155l49 -17zM83 0v700h57v-700h-57z" />
<glyph unicode="&#xce;" horiz-adv-x="223" d="M221 795l-30 -33l-79 84l-79 -83l-30 32l109 114zM83 0v700h57v-700h-57z" />
<glyph unicode="&#xcf;" horiz-adv-x="223" d="M57 780q-16 0 -27 11.5t-11 27.5t11 27t27 11t27 -11t11 -27t-11 -27.5t-27 -11.5zM167 780q-17 0 -28 11t-11 28q0 16 11.5 27t27.5 11t27 -11t11 -27t-11 -27.5t-27 -11.5zM83 0v700h57v-700h-57z" />
<glyph unicode="&#xd0;" horiz-adv-x="723" d="M83 700h226q166 0 269.5 -96t103.5 -257q0 -160 -101.5 -253.5t-263.5 -93.5h-234v342h-71v53h71v305zM140 54h175q135 0 222 76.5t87 216.5q0 141 -88.5 220t-228.5 79h-167v-251h186v-53h-186v-288z" />
<glyph unicode="&#xd1;" horiz-adv-x="721" d="M497 856l14 -42q-25 -32 -76 -32q-28 0 -70 17.5t-68 17.5q-46 0 -66 -28l-15 42q28 35 77 35q27 0 68.5 -18t70.5 -18q37 0 65 26zM580 0l-441 611h-2v-5q0 -5 0.5 -13.5t0.5 -20t0.5 -26.5t1 -30.5t0.5 -34v-36.5v-445h-57v700h58l441 -606h1v5q0 5 -0.5 13.5t-0.5 20 v26t-0.5 30t-0.5 33.5v35v443h57v-700h-58z" />
<glyph unicode="&#xd2;" horiz-adv-x="804" d="M340 909l102 -155h-56l-96 138zM41 351q0 161 103.5 262t257.5 101t257.5 -101t103.5 -262t-103.5 -262t-257.5 -101t-257.5 101t-103.5 262zM99 351q0 -141 86.5 -225t216.5 -84t216.5 84t86.5 225q0 140 -86.5 224t-216.5 84t-216.5 -84t-86.5 -224z" />
<glyph unicode="&#xd3;" horiz-adv-x="804" d="M413 754h-56l102 155l49 -17zM41 351q0 161 103.5 262t257.5 101t257.5 -101t103.5 -262t-103.5 -262t-257.5 -101t-257.5 101t-103.5 262zM99 351q0 -141 86.5 -225t216.5 -84t216.5 84t86.5 225q0 140 -86.5 224t-216.5 84t-216.5 -84t-86.5 -224z" />
<glyph unicode="&#xd4;" horiz-adv-x="804" d="M534 793l-28 -33l-104 92l-105 -91l-29 33l134 115zM41 351q0 161 103.5 262t257.5 101t257.5 -101t103.5 -262t-103.5 -262t-257.5 -101t-257.5 101t-103.5 262zM99 351q0 -141 86.5 -225t216.5 -84t216.5 84t86.5 225q0 140 -86.5 224t-216.5 84t-216.5 -84t-86.5 -224 z" />
<glyph unicode="&#xd5;" horiz-adv-x="804" d="M532 856l15 -42q-28 -32 -77 -32q-28 0 -70 17.5t-68 17.5q-43 0 -66 -28l-15 42q28 35 77 35q26 0 68 -18t72 -18q38 0 64 26zM41 351q0 161 103.5 262t257.5 101t257.5 -101t103.5 -262t-103.5 -262t-257.5 -101t-257.5 101t-103.5 262zM99 351q0 -141 86.5 -225 t216.5 -84t216.5 84t86.5 225q0 140 -86.5 224t-216.5 84t-216.5 -84t-86.5 -224z" />
<glyph unicode="&#xd6;" horiz-adv-x="804" d="M311 780q-15 0 -26 11.5t-11 27.5t11 27t27 11t27 -11t11 -27q0 -17 -11 -28t-28 -11zM494 780q-16 0 -27.5 11t-11.5 28q0 16 11.5 27t27.5 11t27.5 -11t11.5 -27t-11.5 -27.5t-27.5 -11.5zM41 351q0 161 103.5 262t257.5 101t257.5 -101t103.5 -262t-103.5 -262 t-257.5 -101t-257.5 101t-103.5 262zM99 351q0 -141 86.5 -225t216.5 -84t216.5 84t86.5 225q0 140 -86.5 224t-216.5 84t-216.5 -84t-86.5 -224z" />
<glyph unicode="&#xd7;" d="M370 293l128 -129l-36 -35l-128 128l-128 -128l-35 35l128 129l-129 129l36 35l128 -128l128 127l36 -35z" />
<glyph unicode="&#xd8;" horiz-adv-x="804" d="M719 719l-72 -95q116 -102 116 -273q0 -161 -103.5 -262t-257.5 -101q-112 0 -198 54l-74 -96l-42 32l72 96q-119 104 -119 277q0 161 103.5 262t257.5 101q114 0 202 -57l72 93zM99 351q0 -148 95 -233l377 495q-74 46 -169 46q-130 0 -216.5 -84t-86.5 -224zM402 42 q130 0 216.5 84t86.5 225q0 143 -92 229l-376 -494q74 -44 165 -44z" />
<glyph unicode="&#xd9;" horiz-adv-x="692" d="M283 909l102 -155h-56l-95 138zM619 700v-413q0 -147 -69 -223t-204 -76q-136 0 -204.5 76t-68.5 223v413h59v-415q0 -122 52.5 -182.5t161.5 -60.5q110 0 162.5 60.5t52.5 182.5v415h58z" />
<glyph unicode="&#xda;" horiz-adv-x="692" d="M356 754h-56l102 155l49 -17zM619 700v-413q0 -147 -69 -223t-204 -76q-136 0 -204.5 76t-68.5 223v413h59v-415q0 -122 52.5 -182.5t161.5 -60.5q110 0 162.5 60.5t52.5 182.5v415h58z" />
<glyph unicode="&#xdb;" horiz-adv-x="692" d="M478 793l-29 -33l-104 92l-104 -91l-29 33l133 115zM619 700v-413q0 -147 -69 -223t-204 -76q-136 0 -204.5 76t-68.5 223v413h59v-415q0 -122 52.5 -182.5t161.5 -60.5q110 0 162.5 60.5t52.5 182.5v415h58z" />
<glyph unicode="&#xdc;" horiz-adv-x="692" d="M255 780q-16 0 -27 11.5t-11 27.5t11 27t27 11t27 -11t11 -27t-11 -27.5t-27 -11.5zM437 780q-16 0 -27 11.5t-11 27.5t11 27t27 11t27.5 -11t11.5 -27q0 -17 -11 -28t-28 -11zM619 700v-413q0 -147 -69 -223t-204 -76q-136 0 -204.5 76t-68.5 223v413h59v-415 q0 -122 52.5 -182.5t161.5 -60.5q110 0 162.5 60.5t52.5 182.5v415h58z" />
<glyph unicode="&#xdd;" horiz-adv-x="642" d="M336 754h-56l102 155l49 -17zM349 312v-312h-57v312l-274 388h67l170 -241l67 -94h1l7 11q8 11 24 34t33 47l173 243h64z" />
<glyph unicode="&#xde;" horiz-adv-x="550" d="M140 552h131q120 0 185.5 -51.5t65.5 -147.5t-65.5 -146.5t-185.5 -50.5h-131v-156h-57v700h57v-148zM140 208h133q191 0 191 145t-191 145h-133v-290z" />
<glyph unicode="&#xdf;" horiz-adv-x="573" d="M355 336h6q78 0 129 -45.5t51 -124.5q0 -78 -50.5 -128t-133.5 -50q-85 0 -136 44l26 40q43 -37 106 -37q59 0 96.5 36.5t37.5 92.5q0 55 -36 89.5t-97 34.5h-59v50l99 168l-1 2h-54h-201v-508h-55v560h401l-130 -222z" />
<glyph unicode="&#xe0;" horiz-adv-x="588" d="M278 614l-95 138l49 17l102 -155h-56zM436 164h-285l-67 -164h-58l237 560h63l236 -560h-58zM415 213l-58 141q-19 45 -34.5 84t-21.5 55l-6 16h-2q0 -5 -66 -162l-55 -134h243z" />
<glyph unicode="&#xe1;" horiz-adv-x="588" d="M305 614h-56l102 155l49 -17zM436 164h-285l-67 -164h-58l237 560h63l236 -560h-58zM415 213l-58 141q-19 45 -34.5 84t-21.5 55l-6 16h-2q0 -5 -66 -162l-55 -134h243z" />
<glyph unicode="&#xe2;" horiz-adv-x="588" d="M216 623l-30 32l109 114l109 -114l-30 -33l-79 84zM436 164h-285l-67 -164h-58l237 560h63l236 -560h-58zM415 213l-58 141q-19 45 -34.5 84t-21.5 55l-6 16h-2q0 -5 -66 -162l-55 -134h243z" />
<glyph unicode="&#xe3;" horiz-adv-x="588" d="M229 677q-35 0 -57 -28l-14 43q25 34 68 34q25 0 63 -18t64 -18q32 0 55 26l14 -44q-22 -30 -66 -30q-26 0 -65 17.5t-62 17.5zM436 164h-285l-67 -164h-58l237 560h63l236 -560h-58zM415 213l-58 141q-19 45 -34.5 84t-21.5 55l-6 16h-2q0 -5 -66 -162l-55 -134h243z " />
<glyph unicode="&#xe4;" horiz-adv-x="588" d="M204 640q-16 0 -27 11.5t-11 27.5t11 27t27 11t27 -11t11 -27t-11 -27.5t-27 -11.5zM386 640q-16 0 -27 11.5t-11 27.5t11 27t27 11t27.5 -11t11.5 -27q0 -17 -11.5 -28t-27.5 -11zM436 164h-285l-67 -164h-58l237 560h63l236 -560h-58zM415 213l-58 141q-19 45 -34.5 84 t-21.5 55l-6 16h-2q0 -5 -66 -162l-55 -134h243z" />
<glyph unicode="&#xe5;" horiz-adv-x="588" d="M295 601q-40 0 -65.5 24t-25.5 62t25.5 62t65.5 24t65.5 -24t25.5 -62t-25.5 -62t-65.5 -24zM295 736q-23 0 -37 -13.5t-14 -35.5t14 -35.5t37 -13.5t37 13.5t14 35.5t-14 35.5t-37 13.5zM436 164h-285l-67 -164h-58l237 560h63l236 -560h-58zM415 213l-58 141 q-19 45 -34.5 84t-21.5 55l-6 16h-2q0 -5 -66 -162l-55 -134h243z" />
<glyph unicode="&#xe6;" horiz-adv-x="809" d="M756 52v-52h-383v162h-222l-67 -162h-58l238 560h487v-52h-324v-191h255v-51h-255v-214h329zM373 211v298h-79l-123 -298h202z" />
<glyph unicode="&#xe7;" horiz-adv-x="650" d="M548 166l53 -15q-34 -72 -100.5 -115.5t-150.5 -47.5v-1q109 -10 109 -81q0 -38 -29 -58.5t-83 -20.5q-53 0 -81 17v43q25 -17 74 -17q73 0 73 42q0 25 -26.5 35.5t-82.5 12.5v30q-115 11 -189 91.5t-74 198.5q0 125 84 208t209 83q86 0 157 -41.5t105 -123.5l-53 -14 q-36 62 -80 91q-54 36 -126 36q-105 0 -172.5 -66.5t-67.5 -172.5t67.5 -173t170.5 -67q73 0 128 34.5t85 91.5z" />
<glyph unicode="&#xe8;" horiz-adv-x="520" d="M211 769l102 -155h-56l-95 138zM83 0v560h379v-52h-324v-191h255v-51h-255v-214h329v-52h-384z" />
<glyph unicode="&#xe9;" horiz-adv-x="520" d="M284 614h-56l102 155l49 -17zM83 0v560h379v-52h-324v-191h255v-51h-255v-214h329v-52h-384z" />
<glyph unicode="&#xea;" horiz-adv-x="520" d="M406 653l-29 -33l-104 92l-104 -91l-29 33l133 115zM83 0v560h379v-52h-324v-191h255v-51h-255v-214h329v-52h-384z" />
<glyph unicode="&#xeb;" horiz-adv-x="520" d="M183 640q-16 0 -27 11.5t-11 27.5t11 27t27 11t27.5 -11t11.5 -27t-11.5 -27.5t-27.5 -11.5zM365 640q-16 0 -27 11.5t-11 27.5t11 27t27 11t27.5 -11t11.5 -27q0 -17 -11 -28t-28 -11zM83 0v560h379v-52h-324v-191h255v-51h-255v-214h329v-52h-384z" />
<glyph unicode="&#xec;" horiz-adv-x="221" d="M48 769l102 -155h-56l-95 138zM83 0v560h55v-560h-55z" />
<glyph unicode="&#xed;" horiz-adv-x="221" d="M121 614h-56l102 155l49 -17zM83 0v560h55v-560h-55z" />
<glyph unicode="&#xee;" horiz-adv-x="221" d="M220 655l-30 -33l-79 84l-79 -83l-30 32l109 114zM83 0v560h55v-560h-55z" />
<glyph unicode="&#xef;" horiz-adv-x="221" d="M56 640q-16 0 -27 11.5t-11 27.5t11 27t27 11t27.5 -11t11.5 -27t-11.5 -27.5t-27.5 -11.5zM166 640q-16 0 -27.5 11t-11.5 28q0 16 11.5 27t27.5 11t27.5 -11t11.5 -27t-11.5 -27.5t-27.5 -11.5zM83 0v560h55v-560h-55z" />
<glyph unicode="&#xf0;" horiz-adv-x="615" d="M83 560h183q138 0 223 -76t85 -206q0 -128 -84 -203t-218 -75h-189v266h-71v50h71v244zM138 52h133q110 0 178.5 59t68.5 167t-69 169t-184 61h-127v-192h184v-50h-184v-214z" />
<glyph unicode="&#xf1;" horiz-adv-x="622" d="M420 716l14 -44q-22 -30 -66 -30q-26 0 -65 17.5t-62 17.5q-35 0 -57 -28l-14 43q25 34 68 34q25 0 63 -18t64 -18q32 0 55 26zM540 0h-56l-346 476h-2v-4q0 -4 0.5 -10.5t0.5 -15.5v-20.5t0.5 -23.5t0.5 -26.5v-28.5v-347h-55v560h57l344 -470h2v4q0 3 -0.5 9.5t-0.5 15 v19.5t-0.5 22.5t-0.5 25.5v27v347h56v-560z" />
<glyph unicode="&#xf2;" horiz-adv-x="666" d="M271 769l102 -155h-56l-95 138zM41 279q0 126 84 209t207 83q124 0 208 -83t84 -209q0 -125 -84 -208t-208 -83q-123 0 -207 83t-84 208zM97 279q0 -105 67.5 -172t167.5 -67t168 67t68 172q0 106 -67.5 173t-168.5 67q-100 0 -167.5 -67t-67.5 -173z" />
<glyph unicode="&#xf3;" horiz-adv-x="666" d="M344 614h-56l102 155l49 -17zM41 279q0 126 84 209t207 83q124 0 208 -83t84 -209q0 -125 -84 -208t-208 -83q-123 0 -207 83t-84 208zM97 279q0 -105 67.5 -172t167.5 -67t168 67t68 172q0 106 -67.5 173t-168.5 67q-100 0 -167.5 -67t-67.5 -173z" />
<glyph unicode="&#xf4;" horiz-adv-x="666" d="M466 653l-29 -33l-104 92l-105 -91l-29 33l134 115zM41 279q0 126 84 209t207 83q124 0 208 -83t84 -209q0 -125 -84 -208t-208 -83q-123 0 -207 83t-84 208zM97 279q0 -105 67.5 -172t167.5 -67t168 67t68 172q0 106 -67.5 173t-168.5 67q-100 0 -167.5 -67t-67.5 -173z " />
<glyph unicode="&#xf5;" horiz-adv-x="666" d="M447 716l14 -44q-23 -30 -66 -30q-26 0 -65 17.5t-63 17.5q-34 0 -56 -28l-14 43q22 34 67 34q26 0 64 -18t64 -18q32 0 55 26zM41 279q0 126 84 209t207 83q124 0 208 -83t84 -209q0 -125 -84 -208t-208 -83q-123 0 -207 83t-84 208zM97 279q0 -105 67.5 -172t167.5 -67 t168 67t68 172q0 106 -67.5 173t-168.5 67q-100 0 -167.5 -67t-67.5 -173z" />
<glyph unicode="&#xf6;" horiz-adv-x="666" d="M243 640q-16 0 -27 11.5t-11 27.5t11 27t27 11t27 -11t11 -27t-11 -27.5t-27 -11.5zM425 640q-16 0 -27.5 11.5t-11.5 27.5t11.5 27t27.5 11t27.5 -11t11.5 -27q0 -17 -11 -28t-28 -11zM41 279q0 126 84 209t207 83q124 0 208 -83t84 -209q0 -125 -84 -208t-208 -83 q-123 0 -207 83t-84 208zM97 279q0 -105 67.5 -172t167.5 -67t168 67t68 172q0 106 -67.5 173t-168.5 67q-100 0 -167.5 -67t-67.5 -173z" />
<glyph unicode="&#xf7;" d="M334 431q-21 0 -33 12.5t-12 30.5q0 19 12 31t33 12t33 -12.5t12 -30.5q0 -19 -12 -31t-33 -12zM520 266h-373v50h373v-50zM334 69q-21 0 -33 12.5t-12 30.5q0 19 12 30.5t33 11.5q22 0 33.5 -12t11.5 -30q0 -19 -12 -31t-33 -12z" />
<glyph unicode="&#xf8;" horiz-adv-x="666" d="M591 574l-60 -77q93 -85 93 -218q0 -125 -84 -208t-208 -83q-88 0 -161 46l-60 -77l-40 31l60 77q-90 84 -90 214q0 126 84 209t207 83q87 0 158 -44l61 78zM97 279q0 -102 67 -171l294 377q-56 34 -126 34q-100 0 -167.5 -67t-67.5 -173zM332 40q100 0 168 67t68 172 q0 108 -70 175l-294 -378q56 -36 128 -36z" />
<glyph unicode="&#xf9;" horiz-adv-x="605" d="M242 769l101 -155h-55l-96 138zM531 560v-328q0 -244 -230 -244q-228 0 -228 244v328h57v-334q0 -186 173 -186t173 186v334h55z" />
<glyph unicode="&#xfa;" horiz-adv-x="605" d="M314 614h-55l101 155l50 -17zM531 560v-328q0 -244 -230 -244q-228 0 -228 244v328h57v-334q0 -186 173 -186t173 186v334h55z" />
<glyph unicode="&#xfb;" horiz-adv-x="605" d="M436 653l-29 -33l-103 92l-105 -91l-29 33l134 115zM531 560v-328q0 -244 -230 -244q-228 0 -228 244v328h57v-334q0 -186 173 -186t173 186v334h55z" />
<glyph unicode="&#xfc;" horiz-adv-x="605" d="M213 640q-16 0 -27 11.5t-11 27.5t11.5 27t27.5 11t27 -11t11 -27q0 -17 -11 -28t-28 -11zM396 640q-16 0 -27.5 11t-11.5 28q0 16 11.5 27t27.5 11t27 -11t11 -27t-11 -27.5t-27 -11.5zM531 560v-328q0 -244 -230 -244q-228 0 -228 244v328h57v-334q0 -186 173 -186 t173 186v334h55z" />
<glyph unicode="&#xfd;" horiz-adv-x="527" d="M278 614h-55l101 155l50 -17zM291 0h-56v242l-217 318h65l98 -143q21 -30 42 -61t31 -46l11 -15h1l85 122l98 143h60l-218 -318v-242z" />
<glyph unicode="&#xfe;" horiz-adv-x="460" d="M138 434h83q211 0 211 -151q0 -147 -211 -147h-83v-136h-55v560h55v-126zM138 183h85q79 0 115.5 23t36.5 77t-37.5 77t-114.5 23h-85v-200z" />
<glyph unicode="&#xff;" horiz-adv-x="527" d="M177 640q-16 0 -27 11.5t-11 27.5t11.5 27t27.5 11t27 -11t11 -27q0 -17 -11 -28t-28 -11zM360 640q-16 0 -27.5 11t-11.5 28q0 16 11.5 27t27.5 11t27 -11t11 -27t-11 -27.5t-27 -11.5zM291 0h-56v242l-217 318h65l98 -143q21 -30 42 -61t31 -46l11 -15h1l85 122l98 143 h60l-218 -318v-242z" />
<glyph unicode="&#x152;" horiz-adv-x="989" d="M933 0h-458q-29 -4 -70 -4q-160 0 -262 98t-102 256t102 256t263 98q44 0 68 -4h458v-54h-402v-250h319v-54h-319v-288h403v-54zM99 351q0 -139 84 -220.5t223 -81.5q38 0 67 9v585q-30 8 -67 8q-139 0 -223 -81t-84 -219z" />
<glyph unicode="&#x153;" horiz-adv-x="834" d="M778 0h-382q-19 -3 -59 -3q-131 0 -213.5 78t-82.5 205t83 205t214 78q39 0 61 -3h374v-52h-325v-191h256v-51h-256v-214h330v-52zM97 281q0 -106 66 -169.5t176 -63.5q28 0 56 5v454q-28 5 -56 5q-110 0 -176 -62.5t-66 -168.5z" />
<glyph unicode="&#x178;" horiz-adv-x="642" d="M235 780q-16 0 -27 11.5t-11 27.5t11 27t27 11t27 -11t11 -27t-11 -27.5t-27 -11.5zM417 780q-16 0 -27 11.5t-11 27.5t11 27t27 11t27.5 -11t11.5 -27q0 -17 -11 -28t-28 -11zM349 312v-312h-57v312l-274 388h67l170 -241l67 -94h1l7 11q8 11 24 34t33 47l173 243h64z " />
<glyph unicode="&#x2c6;" horiz-adv-x="519" d="M392 793l-29 -33l-104 92l-104 -91l-29 33l133 115z" />
<glyph unicode="&#x2dc;" horiz-adv-x="519" d="M376 856l14 -44q-22 -30 -66 -30q-26 0 -65 17.5t-63 17.5q-34 0 -56 -28l-14 43q25 34 68 34q25 0 63 -18t64 -18q32 0 55 26z" />
<glyph unicode="&#x2000;" horiz-adv-x="456" />
<glyph unicode="&#x2001;" horiz-adv-x="913" />
<glyph unicode="&#x2002;" horiz-adv-x="456" />
<glyph unicode="&#x2003;" horiz-adv-x="913" />
<glyph unicode="&#x2004;" horiz-adv-x="304" />
<glyph unicode="&#x2005;" horiz-adv-x="228" />
<glyph unicode="&#x2006;" horiz-adv-x="152" />
<glyph unicode="&#x2007;" horiz-adv-x="152" />
<glyph unicode="&#x2008;" horiz-adv-x="114" />
<glyph unicode="&#x2009;" horiz-adv-x="182" />
<glyph unicode="&#x200a;" horiz-adv-x="50" />
<glyph unicode="&#x2010;" horiz-adv-x="584" d="M478 266h-373v50h373v-50z" />
<glyph unicode="&#x2011;" horiz-adv-x="584" d="M478 266h-373v50h373v-50z" />
<glyph unicode="&#x2012;" horiz-adv-x="584" d="M478 266h-373v50h373v-50z" />
<glyph unicode="&#x2013;" d="M562 266h-457v50h457v-50z" />
<glyph unicode="&#x2014;" horiz-adv-x="1013" d="M907 266h-802v50h802v-50z" />
<glyph unicode="&#x2018;" horiz-adv-x="207" d="M101 611q19 3 30.5 -7t11.5 -29q0 -17 -11.5 -28.5t-32.5 -11.5q-22 0 -35 14.5t-13 40.5q0 34 22.5 71t60.5 51l25 -30q-23 -8 -39.5 -30t-18.5 -41z" />
<glyph unicode="&#x2019;" horiz-adv-x="207" d="M106 636q-18 -4 -30 6.5t-12 28.5t12 29.5t32 11.5q22 0 35 -14.5t13 -40.5q0 -34 -22.5 -71t-60.5 -51l-24 30q22 8 38.5 30t18.5 41z" />
<glyph unicode="&#x201a;" horiz-adv-x="207" d="M106 -7q-19 -4 -30.5 6t-11.5 29q0 18 12 29.5t32 11.5q22 0 35 -14.5t13 -40.5q0 -35 -22.5 -72t-60.5 -51l-24 30q22 9 38.5 31t18.5 41z" />
<glyph unicode="&#x201c;" horiz-adv-x="378" d="M269 611q19 3 30.5 -7t11.5 -29q0 -17 -11.5 -28.5t-32.5 -11.5q-22 0 -35 14.5t-13 40.5q0 34 22.5 71t60.5 51l25 -30q-23 -8 -39.5 -30t-18.5 -41zM98 611q19 3 31 -7t12 -29q0 -17 -12 -28.5t-32 -11.5q-22 0 -35 14.5t-13 40.5q0 34 22.5 71t60.5 51l24 -30 q-22 -8 -39 -30t-19 -41z" />
<glyph unicode="&#x201d;" horiz-adv-x="378" d="M106 636q-18 -4 -30 6.5t-12 28.5t12 29.5t32 11.5q22 0 35 -14.5t13 -40.5q0 -34 -22.5 -71t-60.5 -51l-24 30q22 8 38.5 30t18.5 41zM277 636q-19 -4 -31 6.5t-12 28.5t12 29.5t32 11.5q23 0 36 -14.5t13 -40.5q0 -34 -22.5 -71t-60.5 -51l-25 30q23 8 39.5 30t18.5 41 z" />
<glyph unicode="&#x201e;" horiz-adv-x="361" d="M106 -7q-19 -4 -30.5 6t-11.5 29q0 18 12 29.5t32 11.5q22 0 35 -14.5t13 -40.5q0 -35 -22.5 -72t-60.5 -51l-24 30q22 9 38.5 31t18.5 41zM260 -7q-19 -4 -31 6t-12 29q0 18 12 29.5t32 11.5q22 0 35 -14.5t13 -40.5q0 -35 -22.5 -72t-60.5 -51l-24 30q22 8 39 30.5 t19 41.5z" />
<glyph unicode="&#x2022;" horiz-adv-x="312" d="M156 213q-32 0 -52.5 20.5t-20.5 51.5t21 51.5t52 20.5t52 -20.5t21 -51.5t-20.5 -51.5t-52.5 -20.5z" />
<glyph unicode="&#x2026;" horiz-adv-x="672" d="M95 -11q-17 0 -27 10t-10 25t10 25t27 10t27 -10t10 -25q0 -16 -10 -25.5t-27 -9.5zM576 -11q-17 0 -27 10t-10 25t10 25t27 10q18 0 28 -10t10 -25t-10 -25t-28 -10zM331 -11q-18 0 -27.5 10t-9.5 25q0 16 10 25.5t27 9.5t27 -10t10 -25q0 -16 -10 -25.5t-27 -9.5z" />
<glyph unicode="&#x202f;" horiz-adv-x="182" />
<glyph unicode="&#x2039;" horiz-adv-x="390" d="M295 512l35 -34l-203 -199v-2l203 -199l-35 -34l-235 234z" />
<glyph unicode="&#x203a;" horiz-adv-x="390" d="M95 44l-35 34l203 199v2l-203 199l35 34l235 -234z" />
<glyph unicode="&#x205f;" horiz-adv-x="228" />
<glyph unicode="&#x20ac;" horiz-adv-x="606" d="M503 147l54 -15q-24 -65 -79.5 -104.5t-142.5 -39.5q-103 0 -165.5 56t-79.5 162h-49v46h44q0 5 -0.5 15.5t-0.5 16.5l1 23h-44v45h48q14 106 75 162.5t165 56.5q86 0 146.5 -39t77.5 -113l-54 -15q-11 46 -51 81t-117 35q-157 0 -183 -168h196v-45h-201v-23q0 -22 1 -32 h200v-46h-195q30 -165 189 -165q124 0 165 106z" />
<glyph unicode="&#x2122;" horiz-adv-x="774" d="M304 700v-40h-112v-285h-42v285h-112v40h266zM691 375h-42v143v34.5t0.5 36t0.5 30.5v23v8h-1l-5 -10q-5 -11 -13.5 -28.5t-16.5 -32.5l-67 -130h-31l-67 130q-8 15 -17.5 33t-14.5 28l-5 11h-1v-133v-143h-41v325h56l79 -154q26 -50 27 -51h1l25 50l78 155h55v-325z" />
</font>
</defs>
</svg>
